Loading...
Error

Скачать Волчья яма / Wolf Creek (сезон 01) (Грег МакЛин, Тони Тилс) [2016, ужасы, триллер, драма, WEBRip] [720p] [VO (Project_Web_Mania)] торрент без регистрации

 
Статистика раздачи
Размер:  2,43 GB   |    Скачан:  9 раз
Сидов:  1  [  0 KB/s  ]  
 
Автор Сообщение

МихаНЕзатор

[] 

Волчья яма / Wolf Creek


Страна: Австралия
Производство: Emu Creek Pictures, Screentime
Год выпуска: 2016
Жанр: ужасы, триллер, драма
Режиссеры: Грег МакЛин, Тони Тилс
Авторы сценария: Питер Гоулер, Грег МакЛин, Фелисити Паккард

В ролях: Люси Фрай, Джон Джэррэт, Дастин Клер, Эдди Бару, Алисия Гардинер, Энди МакФи, Ричард Коуторн, Джэйк Райан

Описание: Ева могла стать очередной жертвой сумасшедшего серийного убийцы Мика Тейлора. Но ей удается избежать смерти от рук маньяка. И теперь она одержима одной только местью...

Дата премьеры (мир): 12 мая 2016



Сезон: 1
Серии: 1-6 (из 6)
Продолжительность: 6х ~00:45:00
Перевод: Любительский (одноголосый, закадровый) | Project_Web_Mania
Субтитры: нет

Качество: WEBRip 720р
Формат: МКV
Видео кодек: AVC
Аудио кодек: АС3
Видео: 1280x720 (16:9), 24.000 fps, MPEG-4 AVC ~1 600 kbps avg
Аудио: 48.0 kHz, AC3 Dolby Digital, 2/0 (L,R) ch, ~192 kbps

АНОНСЫ ПОПУЛЯРНЫХ РАЗДАЧ
General
Unique ID : 209887676352398326278616886783739954183 (0x9DE6E565CB1C7805A70FC7CA7FCC0407)
Format : Matroska
Format version : Version 2
Overall bit rate : 1 629 Kbps
Encoded date : UTC 2016-05-25 18:43:11
Writing application : mkvmerge v5.0.1 ('Es ist Sommer') built on Oct 9 2011 11:55:43
Writing library : libebml v1.2.2 + libmatroska v1.3.0

Video
ID : 1
Format : AVC
Format/Info : Advanced Video Codec
Format profile : Main@L4
Format settings, CABAC : Yes
Format settings, ReFrames : 4 frames
Codec ID : V_MPEG4/ISO/AVC
Bit rate : 1 524 Kbps
Width : 1 280 pixels
Height : 720 pixels
Display aspect ratio : 16:9
Frame rate mode : Constant
Frame rate : 24.000 fps
Color space : YUV
Chroma subsampling : 4:2:0
Bit depth : 8 bits
Scan type : Progressive
Bits/(Pixel*Frame) : 0.059
Stream size : 18.9 MiB (85%)
Default : Yes
Forced : No
Color range : Limited
Color primaries : BT.709
Transfer characteristics : BT.709
Matrix coefficients : BT.709

Audio
ID : 2
Format : AC-3
Format/Info : Audio Coding 3
Mode extension : CM (complete main)
Format settings, Endianness : Big
Codec ID : A_AC3
Bit rate mode : Constant
Bit rate : 192 Kbps
Channel(s) : 2 channels
Channel positions : Front: L R
Sampling rate : 48.0 KHz
Compression mode : Lossy
Stream size : 2.79 MiB (13%)
Title : VO_Project_Web_Mania
Language : Russian
Default : Yes
Forced : No



Скачать Волчья.яма.Wolf.Creek.(сезон.01).(Грег.МакЛин.Тони.Тилс).[2016.ужасы.триллер.драма.WEBRip].[720p].[VO.(Project_Web_Mania)].torrent без регистрации
Золото ЗОЛОТАЯ РАЗДАЧА! СКАЧАННОЕ НЕ ЗАСЧИТЫВАЕТСЯ! Золото
Дата: Зарегистрирован   [ Тип: внутренний ] Как тут cкачать?
MAGNET ссылка
MAGNET ссылка


Скачать .torrent

13 KB

Статус: проверено DHT
Скачан: торрент - 9 раз, раздача полностью - 3 раз
Размер: 2,43 GB
Оценка:  - (Голосов: 0)
Поблагодарили: 0
Поделиться ссылкой на эту раздачу с друзьями:
В контактеFacebookОдноклассникиTwitterLivejournalМой МирLiveinternet
 

 
Показать сообщения:    


Вы не можете начинать темы
Вы не можете отвечать на сообщения
Вы не можете редактировать свои сообщения
Вы не можете удалять свои сообщения
Вы не можете голосовать в опросах
Вы не можете прикреплять файлы к сообщениям
Вы можете скачивать файлы