Loading...
Error

Скачать Проповедник / Preacher (01х01-08 из 10) (Эван Голдберг и др.) [2016, фантастика, драма, экранизация комикса, комеди, WEB-DLRip-AVC] [MVO (AlexFilm)] торрент без регистрации

 
Статистика раздачи
Размер:  4 GB   |    Скачан:  26 раз
Сидов:  1  [  0 KB/s  ]  
 
Автор Сообщение

МихаНЕзатор

[] 

Информация о фильме
Название: Проповедник
Оригинальное название: Preacher
Год выпуска: 2016
Страна: США
Жанр: фэнтези, драма, детектив, приключения
Режиссер: Эван Голдберг , Сет Роген , Майкл Словис

В ролях: Доминик Купер (Jesse Custer), Джозеф Гилган (Cassidy), Рут Негга (Tulip O'Hare), Люси Гриффитс (Emily), У. Эрл Браун (Hugo Root), Том Брук (Fiore), Дерек Уилсон (Donnie Schenck), Анатол Юсеф (DeBlanc), Йен Коллетти (Arseface), Джеки Эрл Хейли (Odin Quincannon), Роджер Ларанц (Core Congregation), Тим Рэнсом (Mr. Murphy)

Описание: Священник Джесси Кастер по воле случая стал носителем внутри своего естества странного существа по имени Генезис. Это дитя совокупления ангела и демона представляет собой одновременно чистый идеал и квинтэссенцию света, но также сгусток абсолютного зла. Генезис - единственное существо во Вселенной, которое может встать вровень с Богом, если того пожелает, а его носитель автоматически становится самым могущественным существом в материальном мире. И это проповедник Кастер.

Релиз от: White Smoke

Перевод: Профессиональный (многоголосый) AlexFilm
Продолжительность: 01:04:48

Качество: WEB-DLRip-AVC
Формат: MKV
Видео: AVC, 1024x576 (16:9), 906 kbps, 23,976 fps, 0,064 bpp
Аудио №1: русский / AC3 / 5.1 / 48 kHz / 384 kbps / 16 bit

АНОНСЫ ПОПУЛЯРНЫХ РАЗДАЧ


Торрент обновлён, добавлена 8-я серия!

General
Unique ID : 222663576150911896772838885625483120482 (0xA78371E3DFDF06E4BFAFE77DFAAA4F62)
Название : C:Preacher.Season 1.WEB-DLRip-AVC.by.White Smoke.R.G.Resident.AlexFilm.mkvPreacher.s01e01.WEB-DLRip-AVC.by.White Smoke.R.G.Resident.AlexFilm.mkv
Формат : Matroska
Формат version : Version 4 / Version 2
Размер файла : 599 MiB
Длительность : 1h 4mn
Общий Битрейт : 1 292 Kbps
Movie name : Preacher.s01e01.WEB-DLRip-AVC.by.White Smoke.R.G.Resident.AlexFilm.mkv
Encoded date : UTC 2016-06-02 04:03:56
Создано приложением : mkvmerge v6.8.0 ('Theme for Great Cities') 64bit built on Mar 2 2014 21:34:26
Writing library : libebml v1.3.0 + libmatroska v1.4.1

Video
ID : 1
Формат : AVC
Формат/Info : Advanced Video Кодек
Формат profile : High@L4.1
Формат настройки, CABAC : Yes
Формат настройки, ReFrames : 12 frames
Кодек ID : V_MPEG4/ISO/AVC
Длительность : 1h 4mn
Битрейт : 906 Kbps
Width : 1 024 пикселей
Высота : 576 пикселей
Соотношение кадра : 16:9
Частота кадров : 23.976 fps
Цветопередача : YUV
Chroma subsampling : 4:2:0
Разрядность : 8 bits
Тип сканирования : Progressive
Bits/(Pixel*Frame) : 0.064
Размер потока : 409 MiB (68%)
Writing library : x264 core 148 r2638 7599210
Encoding настройки : cabac=1 / ref=12 / deblock=1:-3:-3 / analyse=0x3:0x113 / me=umh / subme=9 / psy=1 / psy_rd=1.00:0.00 / mixed_ref=1 / me_range=32 / chroma_me=1 / trellis=2 / 8x8dct=1 / cqm=0 / deadzone=21,11 / fast_pskip=1 / chroma_qp_offset=-2 / threads=6 / lookahead_threads=1 / sliced_threads=0 / nr=0 / decimate=0 / interlaced=0 / bluray_compat=0 / constrained_intra=0 / bframes=12 / b_pyramid=2 / b_adapt=2 / b_bias=10 / direct=1 / weightb=0 / open_gop=0 / weightp=2 / keyint=230 / keyint_min=23 / scenecut=40 / intra_refresh=0 / rc_lookahead=40 / rc=2pass / mbtree=1 / bitrate=906 / ratetol=1.0 / qcomp=0.85 / qpmin=0 / qpmax=69 / qpstep=4 / cplxblur=20.0 / qblur=0.5 / ip_ratio=1.40 / aq=1:1.00
Язык : English
Default : Yes
Forced : No

Audio
ID : 2
Формат : AC-3
Формат/Info : Audio Coding 3
Расширение режима : CM (complete main)
Кодек ID : A_AC3
Длительность : 1h 4mn
Битрейт mode : Constant
Битрейт : 384 Kbps
Channel(s) : 6 каналов
Channel positions : Front: L C R, Side: L R, LFE
Частота : 48.0 KHz
Разрядность : 16 bits
Режим сжатия : Lossy
Размер потока : 178 MiB (30%)
Title : DD 5.1 AlexFilm
Язык : Russian
Default : Yes
Forced : No
Внимание! Раздача ведётся путём добавления новых серий; при каждом добавлении создаётся новый торрент. Чтобы начать докачку новой серии, пользователям необходимо сделать следующее:
(1) остановить скачивание,
(2) удалить старый торрент у себя из клиента (старые серии удалять не надо),
(3) скачать новый торрент и запустить его у себя в клиенте вместо старого, при этом указать клиенту путь в старую папку куда и должно происходить скачивание новых серий.
Ваш клиент при этом должен произвести хеширование (проверку) старой папки (если не производит сам - помогите ему сделать это), и будет докачивать только те серии которых у вас ещё нет. Старые серии при этом не удаляются, а продолжают раздаваться!
Eсли вы уже удалили старые серии, то предотвратить повторную закачку старых серий можно, отжав галочку в соответствующих местах при запуске нового торрента. По возможности, желательно не удалять старые серии как можно дольше чтобы релизёр не столько продолжал раздавать старые серии, а смог сконцентрироваться на новых.



Скачать Проповедник.Preacher.(01х01-08.из.10).(Эван.Голдберг.и.др.).[2016.фантастика.драма.экранизация.комикса.комеди.WEB-DLRip-AVC].[MVO.(AlexFilm)].torrent без регистрации
Золото ЗОЛОТАЯ РАЗДАЧА! СКАЧАННОЕ НЕ ЗАСЧИТЫВАЕТСЯ! Золото
Дата: Зарегистрирован   [ Тип: внутренний ] Как тут cкачать?
MAGNET ссылка
MAGNET ссылка


Скачать .torrent

22 KB

Статус: проверено DHT
Скачан: торрент - 26 раз, раздача полностью - 8 раз
Размер: 4 GB
Оценка:  - (Голосов: 0)
Поблагодарили: 0
Поделиться ссылкой на эту раздачу с друзьями:
В контактеFacebookОдноклассникиTwitterLivejournalМой МирLiveinternet
 

 
Показать сообщения:    


Вы не можете начинать темы
Вы не можете отвечать на сообщения
Вы не можете редактировать свои сообщения
Вы не можете удалять свои сообщения
Вы не можете голосовать в опросах
Вы не можете прикреплять файлы к сообщениям
Вы можете скачивать файлы