Loading...
Error

Скачать МакКью / McQ ( Джон Стёрджес) [1974, боевик, драма, криминал, BDRip] [MVO] торрент без регистрации

 
Статистика раздачи
Размер:  1,46 GB   |    Скачан:  11 раз
Сидов:  1  [  0 KB/s  ]  
 
Автор Сообщение

Marsianka

[] 

Страна: США
Жанр: боевик, драма, криминал
Год выпуска: 1974
Продолжительность: 01:51:12

Перевод: Профессиональный (многоголосый закадровый) ТВ Центр
Cубтитры: нет

Режиссер: Джон Стёрджес / John Sturges

В ролях: Джон Уэйн, Эдди Альберт, Дайана Малдур, Коллин Дьюхёрст, Клу Гулагер, Дэвид Хаддлстон, Джеймс Уоткинс, Аль Леттьери, Джули Адамс, Роджер Э. Мосли

Описание: Лейтенант полиции Лон Маккью с огорчением узнает об убийстве своего друга и напарника Стэна Бойла. Маккью уверен, что за этим преступлением стоит самый крупный наркоторговец Сан-Франциско Мануэль Сантьяго, но у него нет улик для его ареста. Вместо этого Маккью избивает Сантьяго, за что его увольняют из полиции. Маккью все равно частным образом продолжает поиски убийц Бойла и вскоре выясняет, что в деле замешаны крупные партии наркотиков, хранящиеся на складе улик самой полиции…





Автор рипа: Sem-te

Релиз от:

Тип релиза: BDRip
Контейнер: AVI

Видео: 688x288 (2.39:1), 23.976 fps, XviD build 73 ~1681 kbps avg, 0.35 bit/pixel
Аудио: 48 kHz, AC3 Dolby Digital, 2/0 (L,R) ch, ~192 kbps
Размер: 1498.15 Mb

General
Complete name : D:Sem-teMcQ.1974.BDRip.1.46.Gb.XviD.АС3.Sem-te.avi
Format : AVI
Format/Info : Audio Video Interleave
File size : 1.46 GiB
Duration : 1h 51mn
Overall bit rate : 1 883 Kbps
Writing application : VirtualDubMod 1.5.10.3 | www.virtualdub-fr.org || (build 2550/release)
Writing library : VirtualDubMod build 2550/release

Video
ID : 0
Format : MPEG-4 Visual
Format profile : Advanced Simple@L5
Format settings, BVOP : 1
Format settings, QPel : No
Format settings, GMC : No warppoints
Format settings, Matrix : Custom
Codec ID : XVID
Codec ID/Hint : XviD
Duration : 1h 51mn
Bit rate : 1 682 Kbps
Width : 688 pixels
Height : 288 pixels
Display aspect ratio : 2.40:1
Frame rate : 23.976 fps
Color space : YUV
Chroma subsampling : 4:2:0
Bit depth : 8 bits
Scan type : Progressive
Compression mode : Lossy
Bits/(Pixel*Frame) : 0.354
Stream size : 1.31 GiB (89%)
Writing library : XviD 73

Audio
ID : 1
Format : AC-3
Format/Info : Audio Coding 3
Mode extension : CM (complete main)
Format settings, Endianness : Big
Codec ID : 2000
Duration : 1h 51mn
Bit rate mode : Constant
Bit rate : 192 Kbps
Channel(s) : 2 channels
Channel positions : Front: L R
Sampling rate : 48.0 KHz
Bit depth : 16 bits
Compression mode : Lossy
Stream size : 153 MiB (10%)
Alignment : Split accross interleaves
Interleave, duration : 42 ms (1.00 video frame)
Interleave, preload duration : 500 ms



Скачать МакКью.McQ.(.Джон.Стёрджес).[1974.боевик.драма.криминал.BDRip].[MVO].torrent без регистрации
Золото ЗОЛОТАЯ РАЗДАЧА! СКАЧАННОЕ НЕ ЗАСЧИТЫВАЕТСЯ! Золото
Дата: Зарегистрирован   [ Тип: внутренний ] Как тут cкачать?
MAGNET ссылка
MAGNET ссылка


Скачать .torrent

15 KB

Статус: проверено DHT
Скачан: торрент - 11 раз, раздача полностью - 1 раз
Размер: 1,46 GB
Оценка:  - (Голосов: 0)
Поблагодарили: 0
Поделиться ссылкой на эту раздачу с друзьями:
В контактеFacebookОдноклассникиTwitterLivejournalМой МирLiveinternet
 

 
Показать сообщения:    


Вы не можете начинать темы
Вы не можете отвечать на сообщения
Вы не можете редактировать свои сообщения
Вы не можете удалять свои сообщения
Вы не можете голосовать в опросах
Вы не можете прикреплять файлы к сообщениям
Вы можете скачивать файлы