Loading...
Error

Скачать Серая сова / Grey Owl (Ричард Аттенборо) [1999, драма, вестерн, биография, ..., WEB-DLRip-AVC] [DVO]+[Sub]x2 торрент без регистрации

 
Статистика раздачи
Размер:  2,68 GB   |    Скачан:  13 раз
Сидов:  1  [  0 KB/s  ]  
 
Автор Сообщение

Marsianka

[] 

Название: Серая сова
Оригинальное название: Grey Owl
Год выхода: 1999

Страна: Великобритания, Канада
Студия: Beaver Productions, Ajawaan Productions, Canadian Film or Video Production Tax Credit (CPTC)
Продолжительность: 01:53:21
Жанр: драма, вестерн, биография, ...

Режиссер: Ричард Аттенборо
В ролях: Пирс Броснан, Стюарт Бик, Власта Врана, Анни Галипо, Нил Кроетч, Серж Уд, Питер Колвер, Натаниель Арканд, Жак Люссье, Ли-Рой Джейкобс, ...

Перевод: Профессиональный (двуголосый, закадровый)

О фильме: Британец Арчи Белани считал своим домом дикие леса Канады. Известный среди местных индейцев и охотников под именем Серая Сова, Арчи был одиночкой, и сам избрал этот путь, опасный и непредсказуемый. Здесь он был хозяином, способным постоять за себя и прийти на помощь попавшим в беду…



Кодек: x264
Качество: WEB-DLRip-AVC
Видео: 960x408, 3000 kbps, 25 fps
Аудио #1: AC-3, 2 ch, 192 kbps (Rus) - DVO
Аудио #2: AC-3, 2 ch, 192 kbps (Eng)
Субтитры: Русские, Английские

x264 [info]: frame I:1096 Avg QP:12.48 size: 66367
x264 [info]: frame P:42186 Avg QP:14.83 size: 27025
x264 [info]: frame B:126756 Avg QP:17.23 size: 10546
x264 [info]: consecutive B-frames: 1.7% 3.8% 5.3% 59.2% 12.0% 13.4% 2.4% 1.5% 0.2% 0.2% 0.0% 0.1% 0.1%

Общее
Уникальный идентификатор : 175435675133625777713247323160667812659 (0x83FBAE97E74E893D9E2FA167F278F333)
Полное имя : Серая сова (Grey Owl) 1999 WEB-DLRip.mkv
Формат : Matroska
Версия формата : Version 2
Размер файла : 2,68 Гбайт
Продолжительность : 1 ч. 53 м.
Общий поток : 3385 Кбит/сек
Дата кодирования : UTC 2016-06-17 10:44:29
Программа кодирования : mkvmerge v4.0.0 ('The Stars were mine') сборка от Jun 6 2010 16:18:42
Библиотека кодирования : libebml v1.0.0 + libmatroska v1.0.0

Видео
Идентификатор : 1
Формат : AVC
Формат/Информация : Advanced Video Codec
Профиль формата : High@L4.1
Параметр CABAC формата : Да
Параметр ReFrames формата : 9 кадров
Идентификатор кодека : V_MPEG4/ISO/AVC
Продолжительность : 1 ч. 53 м.
Битрейт : 3000 Кбит/сек
Ширина : 960 пикселей
Высота : 408 пикселей
Соотношение сторон : 2,35:1
Режим частоты кадров : Постоянный
Частота кадров : 25,000 кадров/сек
Цветовое пространство : YUV
Субдискретизация насыщенности : 4:2:0
Битовая глубина : 8 бит
Тип развёртки : Прогрессивная
Бит/(Пиксели*Кадры) : 0.306
Размер потока : 2,32 Гбайт (87%)
Библиотека кодирования : x264 core 146 r2538 121396c
Настройки программы : cabac=1 / ref=9 / deblock=1:-3:-3 / analyse=0x3:0x133 / me=umh / subme=11 / psy=1 / psy_rd=1.00:0.00 / mixed_ref=1 / me_range=32 / chroma_me=1 / trellis=2 / 8x8dct=1 / cqm=0 / deadzone=21,11 / fast_pskip=0 / chroma_qp_offset=-2 / threads=12 / lookahead_threads=2 / sliced_threads=0 / nr=0 / decimate=0 / interlaced=0 / bluray_compat=0 / constrained_intra=0 / bframes=12 / b_pyramid=2 / b_adapt=2 / b_bias=0 / direct=3 / weightb=1 / open_gop=0 / weightp=2 / keyint=250 / keyint_min=25 / scenecut=40 / intra_refresh=0 / rc=2pass / mbtree=0 / bitrate=3000 / ratetol=1.0 / qcomp=0.60 / qpmin=0 / qpmax=69 / qpstep=4 / cplxblur=20.0 / qblur=0.5 / ip_ratio=1.40 / pb_ratio=1.30 / aq=1:0.80
Язык : English
Default : Нет
Forced : Нет

Аудио #1
Идентификатор : 2
Формат : AC-3
Формат/Информация : Audio Coding 3
Расширение режима : CM (complete main)
Параметр Endianness формата : Big
Идентификатор кодека : A_AC3
Продолжительность : 1 ч. 53 м.
Вид битрейта : Постоянный
Битрейт : 192 Кбит/сек
Каналы : 2 канала
Расположение каналов : Front: L R
Частота : 48,0 КГц
Частота кадров : 31,250 кадров/сек (1536 spf)
Метод сжатия : С потерями
Размер потока : 156 Мбайт (6%)
Заголовок : DVO
Язык : Russian
Default : Нет
Forced : Нет

Аудио #2
Идентификатор : 3
Формат : AC-3
Формат/Информация : Audio Coding 3
Расширение режима : CM (complete main)
Параметр Endianness формата : Big
Идентификатор кодека : A_AC3
Продолжительность : 1 ч. 53 м.
Вид битрейта : Постоянный
Битрейт : 192 Кбит/сек
Каналы : 2 канала
Расположение каналов : Front: L R
Частота : 48,0 КГц
Частота кадров : 31,250 кадров/сек (1536 spf)
Метод сжатия : С потерями
Размер потока : 156 Мбайт (6%)
Язык : English
Default : Нет
Forced : Нет

Текст #1
Идентификатор : 4
Формат : UTF-8
Идентификатор кодека : S_TEXT/UTF8
Идентификатор кодека/Информация : UTF-8 Plain Text
Язык : Russian
Default : Нет
Forced : Нет

Текст #2
Идентификатор : 5
Формат : UTF-8
Идентификатор кодека : S_TEXT/UTF8
Идентификатор кодека/Информация : UTF-8 Plain Text
Язык : English
Default : Нет
Forced : Нет



Скачать Серая.сова.Grey.Owl.(Ричард.Аттенборо).[1999.драма.вестерн.биография.WEB-DLRip-AVC].[DVO]+[Sub]x2.torrent без регистрации
Золото ЗОЛОТАЯ РАЗДАЧА! СКАЧАННОЕ НЕ ЗАСЧИТЫВАЕТСЯ! Золото
Дата: Зарегистрирован   [ Тип: внутренний ] Как тут cкачать?
MAGNET ссылка
MAGNET ссылка


Скачать .torrent

14 KB

Статус: проверено DHT
Скачан: торрент - 13 раз, раздача полностью - 2 раз
Размер: 2,68 GB
Оценка:  - (Голосов: 0)
Поблагодарили: 1
Поделиться ссылкой на эту раздачу с друзьями:
В контактеFacebookОдноклассникиTwitterLivejournalМой МирLiveinternet
 

 
Показать сообщения:    


Вы не можете начинать темы
Вы не можете отвечать на сообщения
Вы не можете редактировать свои сообщения
Вы не можете удалять свои сообщения
Вы не можете голосовать в опросах
Вы не можете прикреплять файлы к сообщениям
Вы можете скачивать файлы