Loading...
Error

Скачать Пьяная история / Drunk History (Сезон 03) (Джереми Коннер, Дерек Уотерс) [2015, комедия, история, WEBRip] [DVO (HamsterStudio)] торрент без регистрации

 
Статистика раздачи
Размер:  2,52 GB   |    Скачан:  9 раз
Сидов:  1  [  0 KB/s  ]  
 
Автор Сообщение

МихаНЕзатор

[] 

Информация о фильме
Название: Пьяная история
Оригинальное название: Drunk History
Год выхода: 2015
Жанр: комедия, история
Режиссер: Джереми Коннер, Дерек Уотерс

В ролях: Джек Блэк, Стивен Мёрчант, Дейв Грол, Майкл Сера, Вайнона Райдер, Люк Уилсон, Оуэн Уилсон, Джейсон Шварцман, Альфред Молина, Зои Дешанель, Уилл Ферелл, Кристен Уиг

О фильме: Это хулиганский проект вебсайта Funny or Die, который Comedy Central превратил в полноценное телешоу. Рассказчики в разной степени опьянения пытаются пересказать известные исторические события, а различные голливудские знаменитости этот бред инсценируют, открывая рты под авторские реплики.



Релиз от: HamsterStudio

Страна: США
Продолжительность: ~00:22:00 серия
Перевод: Любительский двухголосый [HamsterStudio]

Файл
Кодек: XviD
Качество: WEBRip
Видео: 720x400, 999 Kbps, 23.976 fps
Звук: MP3, 128 Kbps, 2 channels

АНОНСЫ ПОПУЛЯРНЫХ РАЗДАЧ


Торрент обновлён, добавлена 4-13-я серия!
General
Complete name : /home/roma/Відео/Пьяная история (Drunk History) Сезон 3/Drunk.History.S03E01.WEBRip.HamsterStudio.avi
Format : AVI
Format/Info : Audio Video Interleave
File size : 176 MiB
Duration : 21mn 41s
Overall bit rate : 1 137 Kbps
Writing application : VirtualDubMod 1.5.10.2 (build 2540/release)
Writing library : VirtualDubMod build 2540/release

Video
ID : 0
Format : MPEG-4 Visual
Format profile : Advanced Simple@L5
Format settings, BVOP : 2
Format settings, QPel : No
Format settings, GMC : No warppoints
Format settings, Matrix : Default (H.263)
Muxing mode : Packed bitstream
Codec ID : XVID
Codec ID/Hint : XviD
Duration : 21mn 41s
Bit rate : 999 Kbps
Width : 720 pixels
Height : 400 pixels
Display aspect ratio : 16:9
Frame rate : 23.976 (24000/1001) fps
Color space : YUV
Chroma subsampling : 4:2:0
Bit depth : 8 bits
Scan type : Progressive
Compression mode : Lossy
Bits/(Pixel*Frame) : 0.145
Stream size : 155 MiB (88%)
Writing library : XviD 67

Audio
ID : 1
Format : MPEG Audio
Format version : Version 1
Format profile : Layer 3
Mode : Joint stereo
Mode extension : MS Stereo
Codec ID : 55
Codec ID/Hint : MP3
Duration : 21mn 41s
Bit rate mode : Constant
Bit rate : 128 Kbps
Channel(s) : 2 channels
Sampling rate : 48.0 KHz
Compression mode : Lossy
Stream size : 19.9 MiB (11%)
Alignment : Aligned on interleaves
Interleave, duration : 42 ms (1.00 video frame)
Interleave, preload duration : 504 ms
Когда раздача ведётся путём добавления новых серий, при каждом добавлении создётся новый торрент. Чтобы начать докачку новой серии, пользователям необходимо сделать следующее:
(1) остановить скачивание,
(2) удалить старый торрент у себя из клиента (старые серии удалять не надо),
(3) скачать новый торрент и запустить его у себя в клиенте вместо старого, при этом указать клиенту путь в старую папку, куда и должно происходить скачивание новых серий.
Ваш клиент при этом должен произвести хеширование (проверку) старой папки (если не производит сам - помогите ему сделать это), и будет докачивать только те серии, которых у вас ещё нет. Старые серии при этом не удаляются, а продолжают раздаваться!
Eсли вы уже удалили старые серии, то предотвратить повторную закачку старых серий можно, отжав галочку в соответсвующих местах при запуске нового торрента. По возможности, желательно не удалять старые серии как можно дольше, чтобы релизёр не столько продолжал раздавать старые серии, а смог сконцентрироваться на новых.



Скачать Пьяная.история.Drunk.History.(Сезон.03).(Джереми.Коннер.Дерек.Уотерс).[2015.комедия.история.WEBRip].[DVO.(HamsterStudio)].torrent без регистрации
Золото ЗОЛОТАЯ РАЗДАЧА! СКАЧАННОЕ НЕ ЗАСЧИТЫВАЕТСЯ! Золото
Дата: Зарегистрирован   [ Тип: внутренний ] Как тут cкачать?
MAGNET ссылка
MAGNET ссылка


Скачать .torrent

14 KB

Статус: проверено DHT
Скачан: торрент - 9 раз, раздача полностью - 0 раз
Размер: 2,52 GB
Оценка:  - (Голосов: 0)
Поблагодарили: 1
Поделиться ссылкой на эту раздачу с друзьями:
В контактеFacebookОдноклассникиTwitterLivejournalМой МирLiveinternet
 

 

leon030982

[] 

Цитата:

полный сезон
 
Показать сообщения:    


Вы не можете начинать темы
Вы не можете отвечать на сообщения
Вы не можете редактировать свои сообщения
Вы не можете удалять свои сообщения
Вы не можете голосовать в опросах
Вы не можете прикреплять файлы к сообщениям
Вы можете скачивать файлы