Loading...
Error

Скачать Ради любви к игре / For Love of the Game (Сэм Рэйми) [1999, драма, мелодрама, спорт, HD-DVDRip] [MVO] торрент без регистрации

 
Статистика раздачи
Размер:  1,47 GB   |    Скачан:  3 раза
Сидов:  1  [  0 KB/s  ]  
 
Автор Сообщение

Marsianka

[] 

Ради любви к игре / For Love of the Game

Страна: США
Производство: Universal Pictures, Tig Productions, Mirage Enterprises, Beacon Pictures
Год выпуска: 1999
Жанр: драма, мелодрама, спорт
Продолжительность: 02:17:56

Режиссер: Сэм Рэйми
Авторы сценария: Дэна Стивенс, Майкл Шаара

В ролях: Кевин Костнер, Келли Престон, Джон Си Райли, Джена Мэлоун, Брайан Кокс, Эдди Даддио, Дж.К. Симмонс, Вин Скалли, Стив Лайонс

Описание: Никто не играет в бейсбол лучше, чем Билли Чэпел. Он — игрок экстра-класса и настоящая суперзвезда. Миллионы американских мужчин и женщин боготворили его. Самый старший и опытный игрок в своей команде, Билли уже двадцать лет подряд выступает за «Детройтских тигров». Однако он понимает, что рано или поздно настанет время уйти из игры, которая стала смыслом его жизни. Две страшные новости приходят одновременно. Билли хотят «продать» другой команде, что для него крайне тяжело. Мало этого, его возлюбленная неожиданно покидает его… Теперь Билли должен доказать всем, что он по-прежнему суперзвезда бейсбола и, конечно, вернуть свою девушку...



Перевод: Профессиональный (многоголосый, закадровый)
Субтитры: нет
Качество: HD-DVDRip
Формат: АVI
Видео кодек: XviD
Аудио кодек: АС3
Видео: 704x304 (2.35:1), 23.976 fps, XviD ~1 321 kbps avg, 0.257 bit/pixel
Аудио: 48.0 kHz, AC3 Dolby Digital, 2/0 (L,R) ch, ~192 kbps

Бюджет: $80 000 000
Дата премьеры (мир): 15 сентября 1999
релиз на DVD: 21 октября 2008, «Мьюзик-Трейд»
General
Complete name : For Love of the Game_HDDVDRip_RG_All_Films.avi
Format : AVI
Format/Info : Audio Video Interleave
File size : 1.47 GiB
Duration : 2h 17mn
Overall bit rate : 1 522 Kbps
Writing application : VirtualDubMod 1.5.10.3 | (build 2550/release)
Writing library : VirtualDubMod build 2550/release

Video
ID : 0
Format : MPEG-4 Visual
Format profile : Advanced Simple@L5
Format settings, BVOP : Yes
Format settings, QPel : No
Format settings, GMC : No warppoints
Format settings, Matrix : Custom
Codec ID : XVID
Codec ID/Hint : XviD
Duration : 2h 17mn
Bit rate : 1 321 Kbps
Width : 704 pixels
Height : 304 pixels
Display aspect ratio : 2.35:1
Frame rate : 23.976 fps
Color space : YUV
Chroma subsampling : 4:2:0
Bit depth : 8 bits
Scan type : Progressive
Compression mode : Lossy
Bits/(Pixel*Frame) : 0.257
Stream size : 1.27 GiB (87%)
Writing library : XviD 1.2.1 (UTC 2008-12-04)

Audio
ID : 1
Format : AC-3
Format/Info : Audio Coding 3
Mode extension : CM (complete main)
Codec ID : 2000
Duration : 2h 17mn
Bit rate mode : Constant
Bit rate : 192 Kbps
Channel(s) : 2 channels
Channel positions : Front: L R
Sampling rate : 48.0 KHz
Bit depth : 16 bits
Compression mode : Lossy
Stream size : 189 MiB (13%)
Alignment : Split accross interleaves
Interleave, duration : 42 ms (1.00 video frame)
Interleave, preload duration : 500 ms



Скачать Ради.любви.к.игре.For.Love.of.the.Game.(Сэм.Рэйми).[1999.драма.мелодрама.спорт.HD-DVDRip].[MVO].torrent без регистрации
Золото ЗОЛОТАЯ РАЗДАЧА! СКАЧАННОЕ НЕ ЗАСЧИТЫВАЕТСЯ! Золото
Дата: Зарегистрирован   [ Тип: внутренний ] Как тут cкачать?
MAGNET ссылка
MAGNET ссылка


Скачать .torrent

15 KB

Статус: проверено DHT
Скачан: торрент - 3 раз, раздача полностью - 2 раз
Размер: 1,47 GB
Оценка:  - (Голосов: 0)
Поблагодарили: 0
Поделиться ссылкой на эту раздачу с друзьями:
В контактеFacebookОдноклассникиTwitterLivejournalМой МирLiveinternet
 

 
Показать сообщения:    


Вы не можете начинать темы
Вы не можете отвечать на сообщения
Вы не можете редактировать свои сообщения
Вы не можете удалять свои сообщения
Вы не можете голосовать в опросах
Вы не можете прикреплять файлы к сообщениям
Вы можете скачивать файлы