Loading...
Error

Скачать Изнанка судьбы / Reversal of Fortune (Барбет Шрёдер) [1990, драма, детектив, биография, DVDRip] [Dub] торрент без регистрации

Статистика раздачи
Размер:  1,37 GB   |    Скачан:  8 раз
Сидов:  1  [  0 KB/s  ]  
 
 
 
Автор Сообщение

Marsianka

[] 

Изнанка судьбы / Reversal of Fortune

Страна: США Япония Великобритания
Производство: Reversal Films Inc., Shochiku-Fuji Company, Sovereign Pictures
Год выпуска: 1990
Жанр: драма, детектив, биография
Продолжительность: 01:51:43

Режиссер: Барбет Шрёдер
Авторы сценария: Николас Казан, Алан М. Дершовиц

В ролях: Гленн Клоуз, Джереми Айронс, Рон Сильвер, Аннабелла Шиорра, Ута Хаген, Фишер Стивенс, Джек Гилпин, Кристин Барански

Описание: Аристократ Клаус фон Бюлов обвинен в попытке убийства своей жены Санни. Клаус был оправдан. Так виновен ли он..?



Перевод: Профессиональный (полное дублирование) | Варус-Видео
Субтитры: нет
Качество: DVDRip
Формат: AVI
Видео кодек: XviD
Аудио кодек: МР3
Видео: 704x384 (16:9), 23.976 fps, XviD ~1 614 kbps
Аудио: 48.0 kHz, MPEG Layer 3, 2 ch, ~128.00 kbps avg

Дата премьеры (мир): 12 сентября 1990

Премия Золотой глобус, 1991 год
» Лучшая мужская роль (драма) (Джереми Айронс)

Премия Оскар, 1991 год
» Лучшая мужская роль (Джереми Айронс)
General
Complete name : Iznanka.sydjbi.1990.XviD.DVDRip-Zanaves.avi
Format : AVI
Format/Info : Audio Video Interleave
File size : 1.37 GiB
Duration : 1h 51mn
Overall bit rate : 1 751 Kbps
Writing application : VirtualDubMod 1.5.10.2 (build 2540/release)
Writing library : VirtualDub build 30009/release

Video
ID : 0
Format : MPEG-4 Visual
Format profile : AdvancedSimple@L5
Format settings, BVOP : Yes
Format settings, QPel : No
Format settings, GMC : No warppoints
Format settings, Matrix : Default (MPEG)
Codec ID : XVID
Codec ID/Hint : XviD
Duration : 1h 51mn
Bit rate : 1 614 Kbps
Width : 704 pixels
Height : 384 pixels
Display aspect ratio : 16/9
Frame rate : 23.976 fps
Resolution : 24 bits
Colorimetry : 4:2:0
Scan type : Progressive
Bits/(Pixel*Frame) : 0.249
Stream size : 1.26 GiB (92%)
Writing library : XviD 1.2.1 (UTC 2008-12-04)

Audio
ID : 1
Format : MPEG Audio
Format version : Version 1
Format profile : Layer 3
Codec ID : 55
Codec ID/Hint : MP3
Duration : 1h 51mn
Bit rate mode : Constant
Bit rate : 128 Kbps
Channel(s) : 2 channels
Sampling rate : 48.0 KHz
Resolution : 16 bits
Stream size : 102 MiB (7%)
Alignment : Aligned on interleaves
Interleave, duration : 42 ms (1.00 video frame)
Interleave, preload duration : 504 ms



Скачать Изнанка.судьбы.Reversal.of.Fortune.(Барбет.Шрёдер).[1990.драма.детектив.биография.DVDRip].[Dub].torrent без регистрации
Золото ЗОЛОТАЯ РАЗДАЧА! СКАЧАННОЕ НЕ ЗАСЧИТЫВАЕТСЯ! Золото
Дата: Зарегистрирован   [ Тип: внутренний ] Как тут cкачать?
MAGNET ссылка
MAGNET ссылка


Скачать .torrent

14 KB

Статус: проверено DHT
Скачан: торрент - 8 раз, раздача полностью - 1 раз
Размер: 1,37 GB
Оценка:  - (Голосов: 0)
Поблагодарили: 0
Поделиться ссылкой на эту раздачу с друзьями:
В контактеFacebookОдноклассникиTwitterLivejournalМой МирLiveinternet
 

 
Показать сообщения:    


Вы не можете начинать темы
Вы не можете отвечать на сообщения
Вы не можете редактировать свои сообщения
Вы не можете удалять свои сообщения
Вы не можете голосовать в опросах
Вы не можете прикреплять файлы к сообщениям
Вы можете скачивать файлы