Loading...
Error

Скачать Изнанка судьбы / Reversal of Fortune (Барбет Шрёдер) [1990, драма, детектив, биография, DVDRip] [AVO]+[MVO] торрент без регистрации

 
Статистика раздачи
Размер:  1,67 GB   |    Скачан:  9 раз
Сидов:  1  [  0 KB/s  ]  
 
Автор Сообщение

Marsianka

[] 

Изнанка судьбы / Reversal of Fortune

Страна: США Япония Великобритания
Производство: Reversal Films Inc., Shochiku-Fuji Company, Sovereign Pictures
Год выпуска: 1990
Жанр: драма, детектив, биография
Продолжительность: 01:51:35

Режиссер: Барбет Шрёдер
Авторы сценария: Николас Казан, Алан М. Дершовиц

В ролях: Гленн Клоуз, Джереми Айронс, Рон Сильвер, Аннабелла Шиорра, Ута Хаген, Фишер Стивенс, Джек Гилпин, Кристин Барански

Описание: Аристократ Клаус фон Бюлов обвинен в попытке убийства своей жены Санни. Клаус был оправдан. Так виновен ли он..?



Перевод: Авторский (одноголосый) | Алексей Михалев + Профессиональный (многоголосый, закадровый) | 5 канал (отдельным файлом)
Субтитры: нет
Качество: DVDRip
Формат: AVI
Видео кодек: DivX 5
Аудио кодек: АС3
Видео: 720x400 (16:9), 25.000 fps, DivX 5 ~1 550 kbps
Аудио №1: 48.0 kHz, AC3 Dolby Digital, 2/0 (L,R) ch, ~192 kbps | AVO / Алексей Михалев
Аудио №2: 48.0 kHz, AC3 Dolby Digital, 2/0 (L,R) ch, ~192 kbps | MVO / отдельным файлом
Аудио №3: 48.0 kHz, AC3 Dolby Digital, 2/0 (L,R) ch, ~192 kbps | ENG / отдельным файлом
Дата премьеры (мир): 12 сентября 1990

Премия Золотой глобус, 1991 год
» Лучшая мужская роль (драма) (Джереми Айронс)

Премия Оскар, 1991 год
» Лучшая мужская роль (Джереми Айронс)
General
Полное имя : Изнанка Судьбы (1990).avi
Формат : AVI
Формат/Информация : Audio Video Interleave
Размер файла : 1,37 Гбайт
Продолжительность : 1 ч. 51 м.
Общий поток : 1752 Кбит/сек
Программа кодирования : VirtualDubModRus 1.5.10.2 (build 2542/release)
Библиотека кодирования : VirtualDubMod build 2542/release

Видео
Идентификатор : 0
Формат : MPEG-4 Visual
Профиль формата : Advanced Simple@L5
Параметр BVOP формата : 1
Параметр QPel формата : Нет
Параметр GMC формата : Без точки перехода
Параметр матрицы формата : Default (H.263)
Идентификатор кодека : DX50
Идентификатор кодека/Подсказка : DivX 5
Продолжительность : 1 ч. 51 м.
Битрейт : 1550 Кбит/сек
Ширина : 720 пикс.
Высота : 400 пикс.
Соотношение сторон : 16:9
Частота кадров : 25,000 кадр/сек
Цветовое пространство : YUV
Подвыборка цветности : 4:2:0
Битовая глубина : 8 бит
Тип развёртки : Прогрессивная
Метод сжатия : С потерями
Бит/(Пиксели*Кадры) : 0.215
Размер потока : 1,21 Гбайт (88%)
Библиотека кодирования : XviD 1.2.1 (UTC 2008-12-04)

Аудио
Идентификатор : 1
Формат : AC-3
Формат/Информация : Audio Coding 3
Профиль формата : Dolby Digital
Расширение режима : CM (complete main)
Идентификатор кодека : 2000
Продолжительность : 1 ч. 51 м.
Вид битрейта : Постоянный
Битрейт : 192 Кбит/сек
Каналы : 2 канала
Расположение каналов : Front: L R
Частота : 48,0 КГц
Битовая глубина : 16 бит
Метод сжатия : С потерями
Размер потока : 154 Мбайт (11%)
Выравнивание : Разделение по промежуткам
Продолжительность промежутка : 40 мс. (1,00 видеокадр)
Время предзагрузки промежутка : 500 ms



Скачать Изнанка.судьбы.Reversal.of.Fortune.(Барбет.Шрёдер).[1990.драма.детектив.биография.DVDRip].[AVO]+[MVO].torrent без регистрации
Золото ЗОЛОТАЯ РАЗДАЧА! СКАЧАННОЕ НЕ ЗАСЧИТЫВАЕТСЯ! Золото
Дата: Зарегистрирован   [ Тип: внутренний ] Как тут cкачать?
MAGNET ссылка
MAGNET ссылка


Скачать .torrent

18 KB

Статус: проверено DHT
Скачан: торрент - 9 раз, раздача полностью - 19 раз
Размер: 1,67 GB
Оценка:  - (Голосов: 0)
Поблагодарили: 1
Поделиться ссылкой на эту раздачу с друзьями:
В контактеFacebookОдноклассникиTwitterLivejournalМой МирLiveinternet
 

 
Показать сообщения:    


Вы не можете начинать темы
Вы не можете отвечать на сообщения
Вы не можете редактировать свои сообщения
Вы не можете удалять свои сообщения
Вы не можете голосовать в опросах
Вы не можете прикреплять файлы к сообщениям
Вы можете скачивать файлы