Loading...
Error

Скачать Дорогой доктор / Royal Pains (сезон 08) (Джейс Александр) [2016, драма, комедия, медицина, HDTV] [720p] [DVO (Sunshine Studio)] торрент без регистрации

 
Статистика раздачи
Размер:  8,24 GB   |    Скачан:  10 раз
Сидов:  1  [  0 KB/s  ]  
 
Автор Сообщение

МихаНЕзатор

[] 

Название: Пациент всегда прав (Доктор дорогих домов)
Оригинальное название: Royal pains
Год выхода: 2016
Жанр: драма, комедия, медицина
Режиссер: Джейс Александр

В ролях: Марк Фойерстин, Паоло Костанзо, Кэмпбелл Скотт, Джилл Флинт, Джеймс П. Андерсон, Тайлер Аллен, Решма Шити, Брук Д`Орсей, Дитер Рисл, Генри Уинклер, Паола Турбэй, Рупак Джинн, Кристин Эберсоул, Анастасия Гриффит, Кайл Ховард, Томас Кэвэна, Боб Гантон, Мередит Хагнер, Анна Джордж, Эзра Миллер, Марк Бретт Стайгер, Саттон Фостер, Берто Колон, Бруно Кампос, Джоанна Гарсиа, Лиза Бейнс, Патрик Хьюсингер, Уилмер Вальдеррама, Эджей Мехта, Марша Гей Харден, Патрик Гилберт, Джонатан Такер, Джо Урбан, Закари Бут, Аарон Дин, Ана де ла Регера, Эмили Бергл, Пурна Джаганнатхан и др.

О сериале: Хэнк Лоусон – молодой талантливый врач, у которого есть все атрибуты успеха: блестящая карьера, невеста-красавица. Но, обвиненный в совершении врачебной ошибки, Хэнк остается без работы и попадает в «черный список» всех медицинских учреждений Нью-Йорка. Невеста тут же «испаряется», оставив ему стопку счетов на оплату несостоявшейся свадьбы. Брат уговаривает Хэнка поехать на курорт, отдохнуть и развеяться. Случайно молодой врач оказывается в нужном месте в нужное время и спасает жизнь фотомодели на закрытой вечеринке «для избранных». С этого момента у Хэнка отбоя нет от богачей и знаменитостей, которые просят помочь разобраться с их проблемами. В жизни Хэнка начинается новый этап, но хочет ли он быть «доктором по вызову»? Сможет ли он себя найти в мире денег и власти?



Страна: США
Студия: Universal Cable Productions, Prospect Park, USA Network
Продолжительность: ~ 00:45:00

Перевод: Любительский (двухголосый) Sunshine Studio
Субтитры: Отсутствуют
Реклама: Присутствует

Файл
Формат: MKV
Качество: HDTV 720р
Видео: MPEG-4 AVC, ~ 4000 Кбит/с, 1280x720
Аудио: 48 kHz, AC3 Dolby Digital, 2/0 (L,R) ch, ~192 kbps

АНОНСЫ ПОПУЛЯРНЫХ РАЗДАЧ


Торрент обновлён, добавлена 8-я серия!
Формат : Matroska
Версия формата : Version 2
Размер файла : 1,39 Гбайт
Продолжительность : 42 м.
Общий поток : 4615 Кбит/сек
Дата кодирования : UTC 2016-06-11 14:57:46
Программа кодирования : mkvmerge v4.9.1 ('Ich will') сборка от Jul 11 2011 23:53:15
Библиотека кодирования : libebml v1.2.1 + libmatroska v1.1.1 / Lavf55.37.101

Видео
Идентификатор : 1
Формат : AVC
Формат/Информация : Advanced Video Codec
Профиль формата : Main@L3.1
Параметр CABAC формата : Да
Параметр ReFrames формата : 4 кадра
Режим смешивания : Header stripping
Идентификатор кодека : V_MPEG4/ISO/AVC
Продолжительность : 42 м.
Битрейт : 4444 Кбит/сек
Ширина : 1280 пикселей
Высота : 720 пикселей
Соотношение сторон : 16:9
Режим частоты кадров : Постоянный
Частота кадров : 23,976 кадра/сек
Цветовое пространство : YUV
Субдискретизация насыщенности : 4:2:0
Битовая глубина : 8 бит
Тип развёртки : Прогрессивная
Бит/(Пиксели*Кадры) : 0.201
Размер потока : 1,30 Гбайт (94%)
Библиотека кодирования : x264 core 119
Настройки программы : cabac=1 / ref=1 / deblock=1:0:0 / analyse=0x1:0x1 / me=dia / subme=1 / psy=1 / psy_rd=1.00:0.00 / mixed_ref=0 / me_range=16 / chroma_me=1 / trellis=0 / 8x8dct=0 / cqm=0 / deadzone=21,11 / fast_pskip=1 / chroma_qp_offset=0 / threads=2 / sliced_threads=0 / nr=0 / decimate=1 / interlaced=0 / bluray_compat=0 / constrained_intra=0 / bframes=3 / b_pyramid=2 / b_adapt=1 / b_bias=0 / direct=1 / weightb=1 / open_gop=0 / weightp=1 / keyint=250 / keyint_min=23 / scenecut=40 / intra_refresh=0 / rc=abr / mbtree=0 / bitrate=4444 / ratetol=1.0 / qcomp=0.60 / qpmin=0 / qpmax=69 / qpstep=4 / ip_ratio=1.40 / pb_ratio=1.30 / aq=1:1.00
Default : Да
Forced : Нет

Аудио
Идентификатор : 2
Формат : AC-3
Формат/Информация : Audio Coding 3
Расширение режима : CM (complete main)
Параметр Endianness формата : Big
Режим смешивания : Header stripping
Идентификатор кодека : A_AC3
Продолжительность : 42 м.
Вид битрейта : Постоянный
Битрейт : 192 Кбит/сек
Каналы : 2 канала
Расположение каналов : Front: L R
Частота : 48,0 КГц
Частота кадров : 31,250 кадров/сек (1536 spf)
Метод сжатия : С потерями
Задержка видео : -83 мс.
Размер потока : 59,0 Мбайт (4%)
Default : Да
Forced : Нет
Внимание! Раздача ведётся путём добавления новых серий; при каждом добавлении создаётся новый торрент. Чтобы начать докачку новой серии, пользователям необходимо сделать следующее:
(1) остановить скачивание,
(2) удалить старый торрент у себя из клиента (старые серии удалять не надо),
(3) скачать новый торрент и запустить его у себя в клиенте вместо старого, при этом указать клиенту путь в старую папку куда и должно происходить скачивание новых серий.

Ваш клиент при этом должен произвести хеширование (проверку) старой папки (если не производит сам - помогите ему сделать это), и будет докачивать только те серии которых у вас ещё нет. Старые серии при этом не удаляются, а продолжают раздаваться!

Eсли вы уже удалили старые серии, то предотвратить повторную закачку старых серий можно, отжав галочку в соответсвующих местах при запуске нового торрента. По возможности, желательно не удалять старые серии как можно дольше чтобы релизёр не столько продолжал раздавать старые серии, а смог сконцентрироваться на новых.



Скачать Дорогой.доктор.Royal.Pains.(сезон.08).(Джейс.Александр).[2016.драма.комедия.медицина.HDTV].[720p].[DVO.(Sunshine.Studio)].torrent без регистрации
Золото ЗОЛОТАЯ РАЗДАЧА! СКАЧАННОЕ НЕ ЗАСЧИТЫВАЕТСЯ! Золото
Дата: Зарегистрирован   [ Тип: внутренний ] Как тут cкачать?
MAGNET ссылка
MAGNET ссылка


Скачать .torrent

22 KB

Статус: проверено DHT
Скачан: торрент - 10 раз, раздача полностью - 3 раз
Размер: 8,24 GB
Оценка:  - (Голосов: 0)
Поблагодарили: 0
Поделиться ссылкой на эту раздачу с друзьями:
В контактеFacebookОдноклассникиTwitterLivejournalМой МирLiveinternet
 

 
Показать сообщения:    


Вы не можете начинать темы
Вы не можете отвечать на сообщения
Вы не можете редактировать свои сообщения
Вы не можете удалять свои сообщения
Вы не можете голосовать в опросах
Вы не можете прикреплять файлы к сообщениям
Вы можете скачивать файлы