Loading...
Error

Скачать Я достану тебя, ублюдок / I'm Gonna Git You Sucka (Кинен Айвори Уайанс) [1988, боевик, комедия, пародия, BDRip-AVC] [MVO]+[DVO]+[Оригинал]+[Sub] торрент без регистрации

 
Статистика раздачи
Размер:  2,14 GB   |    Скачан:  9 раз
Сидов:  1  [  0 KB/s  ]  
 
Автор Сообщение

Marsianka

[] 

Я достану тебя, ублюдок / I'm Gonna Git You Sucka

Страна: США
Жанр: боевик, комедия, пародия
Год выпуска: 1988
Продолжительность: 01:30:43

Перевод: Профессиональный (многоголосый закадровый) | ТНТ
Перевод 2: Профессиональный (двухголосый закадровый) | НТВ+
Cубтитры: английские
Оригинальная аудиодорожка: английский

Режиссер: Кинен Айвори Уайанс / Keenen Ivory Wayans

В ролях: Кинен Айвори Уайанс, Берни Кейси, Антонио Фаргас, Стив Джеймс, Айзек Хейз, Джим Браун, Жанетт ДуБойс, Доун Льюис, Джон Вернон, Клу Гулагер

Описание: Джек Спейд возвращается из армии в родной черный квартал, где погиб его брат, Джун Баг. Джек объявляет войну мистеру Бигу, местному боссу мафии. Армию Джека поведет вперед кумир Джека с детских лет, Джон Слейд, человек, имеющий огромный опыт ведения военных действий против плохих парней.



Качество видео: BDRip-AVC
Формат видео: MKV

Видео: AVC, 1024x554 (16:9), 23.976 fps, 2 858 Kbps (0.210 bit/pixel)
Аудио #1: AC-3, 48.0 KHz, 2 ch, 192 Kbps, CBR (Russian_TNT)
Аудио #2: AC-3, 48.0 KHz, 2 ch, 192 Kbps, CBR (Russian_NTV+)
Аудио #3: AC-3, 48.0 KHz, 2 ch, 192 Kbps, CBR (English)
Формат субтитров: softsub (SRT)
[Information] [23.05.2016 20:55:53] Standard error stream
-[Information] [23.05.2016 20:56:01] raw [info]: 1024x554p 1:1 @ 24000/1001 fps (cfr)
-[Information] [23.05.2016 20:56:01] x264 [info]: using SAR=1/1
-[Information] [23.05.2016 20:56:01] x264 [info]: using cpu capabilities: MMX2 SSE2Fast SSSE3 SSE4.2 AVX
-[Information] [23.05.2016 20:56:01] x264 [info]: profile High, level 4.1
-[Information] [24.05.2016 5:51:03] x264 [info]: frame I:895 Avg QP:17.60 size: 65921
-[Information] [24.05.2016 5:51:03] x264 [info]: frame P:24033 Avg QP:20.45 size: 27788
-[Information] [24.05.2016 5:51:03] x264 [info]: frame B:102601 Avg QP:21.95 size: 11432
-[Information] [24.05.2016 5:51:03] x264 [info]: consecutive B-frames: 1.3% 1.7% 5.3% 14.5% 14.6% 36.4% 8.2% 3.2% 5.1% 1.9% 2.9% 3.1% 1.8%
-[Information] [24.05.2016 5:51:03] x264 [info]: mb I I16..4: 5.2% 83.5% 11.3%
-[Information] [24.05.2016 5:51:03] x264 [info]: mb P I16..4: 0.5% 10.8% 1.2% P16..4: 41.2% 24.8% 14.6% 0.3% 0.1% skip: 6.6%
-[Information] [24.05.2016 5:51:03] x264 [info]: mb B I16..4: 0.0% 0.7% 0.1% B16..8: 45.9% 14.2% 3.7% direct: 7.3% skip:28.1% L0:47.2% L1:45.9% BI: 6.9%
-[Information] [24.05.2016 5:51:03] x264 [info]: 8x8 transform intra:85.5% inter:67.2%
-[Information] [24.05.2016 5:51:03] x264 [info]: direct mvs spatial:99.5% temporal:0.5%
-[Information] [24.05.2016 5:51:03] x264 [info]: coded y,uvDC,uvAC intra: 93.7% 79.5% 44.7% inter: 37.2% 26.6% 1.5%
-[Information] [24.05.2016 5:51:03] x264 [info]: i16 v,h,dc,p: 61% 17% 6% 17%
-[Information] [24.05.2016 5:51:03] x264 [info]: i8 v,h,dc,ddl,ddr,vr,hd,vl,hu: 10% 7% 5% 10% 15% 15% 14% 12% 12%
-[Information] [24.05.2016 5:51:03] x264 [info]: i4 v,h,dc,ddl,ddr,vr,hd,vl,hu: 13% 6% 2% 9% 15% 17% 14% 13% 11%
-[Information] [24.05.2016 5:51:03] x264 [info]: i8c dc,h,v,p: 38% 23% 22% 17%
-[Information] [24.05.2016 5:51:03] x264 [info]: Weighted P-Frames: Y:7.6% UV:3.5%
-[Information] [24.05.2016 5:51:03] x264 [info]: ref P L0: 38.7% 12.1% 17.1% 6.8% 6.1% 4.2% 3.9% 2.1% 2.0% 1.6% 1.6% 1.3% 1.3% 1.2% 0.2% 0.0%
-[Information] [24.05.2016 5:51:03] x264 [info]: ref B L0: 61.2% 13.9% 7.9% 4.3% 3.2% 2.6% 2.1% 1.3% 1.1% 1.0% 0.8% 0.5% 0.2%
-[Information] [24.05.2016 5:51:03] x264 [info]: ref B L1: 89.5% 10.5%
-[Information] [24.05.2016 5:51:03] x264 [info]: kb/s:2857.34
-[Information] [24.05.2016 5:51:03] encoded 127529 frames, 3.97 fps, 2857.34 kb/s

Общее
Уникальный идентификатор : 205383283866227474410889758717872177746 (0x9A8361B3A5CA68898573856897FC0252)
Формат : Matroska
Версия формата : Version 4 / Version 2
Размер файла : 2,14 Гбайт
Продолжительность : 1 ч. 30 м.
Общий поток : 3370 Кбит/сек
Дата кодирования : UTC 2016-05-24 05:27:46
Программа кодирования : mkvmerge v7.0.0 ('Where We Going') 64bit built on Jun 9 2014 15:16:27
Библиотека кодирования : libebml v1.3.0 + libmatroska v1.4.1

Видео
Идентификатор : 1
Формат : AVC
Формат/Информация : Advanced Video Codec
Профиль формата : High@L4.1
Параметр CABAC формата : Да
Параметр ReFrames формата : 14 кадров
Идентификатор кодека : V_MPEG4/ISO/AVC
Продолжительность : 1 ч. 28 м.
Битрейт : 2858 Кбит/сек
Ширина : 1024 пикселя
Высота : 554 пикселя
Соотношение сторон : 1,85:1
Режим частоты кадров : Постоянный
Частота кадров : 23,976 (24000/1001) кадра/сек
Цветовое пространство : YUV
Субдискретизация насыщенности : 4:2:0
Битовая глубина : 8 бит
Тип развёртки : Прогрессивная
Бит/(Пиксели*Кадры) : 0.210
Размер потока : 1,77 Гбайт (83%)
Библиотека кодирования : x264 core 148 r2638 7599210
Настройки программы : cabac=1 / ref=14 / deblock=1:0:0 / analyse=0x3:0x133 / me=umh / subme=10 / psy=1 / psy_rd=1.00:0.00 / mixed_ref=1 / me_range=24 / chroma_me=1 / trellis=2 / 8x8dct=1 / cqm=0 / deadzone=21,11 / fast_pskip=1 / chroma_qp_offset=-2 / threads=6 / lookahead_threads=1 / sliced_threads=0 / nr=0 / decimate=1 / interlaced=0 / bluray_compat=0 / constrained_intra=0 / bframes=12 / b_pyramid=2 / b_adapt=2 / b_bias=0 / direct=3 / weightb=1 / open_gop=0 / weightp=2 / keyint=240 / keyint_min=23 / scenecut=40 / intra_refresh=0 / rc_lookahead=60 / rc=2pass / mbtree=0 / bitrate=2858 / ratetol=1.0 / qcomp=0.60 / qpmin=0 / qpmax=69 / qpstep=4 / cplxblur=20.0 / qblur=0.5 / vbv_maxrate=62500 / vbv_bufsize=78125 / nal_hrd=none / filler=0 / ip_ratio=1.40 / pb_ratio=1.30 / aq=1:1.00
Default : Да
Forced : Нет

Аудио #1
Идентификатор : 2
Формат : AC-3
Формат/Информация : Audio Coding 3
Расширение режима : CM (complete main)
Параметр Endianness формата : Big
Идентификатор кодека : A_AC3
Продолжительность : 1 ч. 30 м.
Вид битрейта : Постоянный
Битрейт : 192 Кбит/сек
Каналы : 2 канала
Расположение каналов : Front: L R
Частота : 48,0 КГц
Частота кадров : 31,250 кадров/сек (1536 spf)
Метод сжатия : С потерями
Размер потока : 125 Мбайт (6%)
Заголовок : Russian_TNT
Язык : Russian
Default : Да
Forced : Нет

Аудио #2
Идентификатор : 3
Формат : AC-3
Формат/Информация : Audio Coding 3
Расширение режима : CM (complete main)
Параметр Endianness формата : Big
Идентификатор кодека : A_AC3
Продолжительность : 1 ч. 30 м.
Вид битрейта : Постоянный
Битрейт : 192 Кбит/сек
Каналы : 2 канала
Расположение каналов : Front: L R
Частота : 48,0 КГц
Частота кадров : 31,250 кадров/сек (1536 spf)
Метод сжатия : С потерями
Размер потока : 125 Мбайт (6%)
Заголовок : Russian_NTV+
Язык : Russian
Default : Нет
Forced : Нет

Аудио #3
Идентификатор : 4
Формат : AC-3
Формат/Информация : Audio Coding 3
Расширение режима : CM (complete main)
Параметр Endianness формата : Big
Идентификатор кодека : A_AC3
Продолжительность : 1 ч. 30 м.
Вид битрейта : Постоянный
Битрейт : 192 Кбит/сек
Каналы : 2 канала
Расположение каналов : Front: L R
Частота : 48,0 КГц
Частота кадров : 31,250 кадров/сек (1536 spf)
Метод сжатия : С потерями
Размер потока : 125 Мбайт (6%)
Заголовок : English
Язык : English
Default : Нет
Forced : Нет

Текст
Идентификатор : 5
Формат : UTF-8
Идентификатор кодека : S_TEXT/UTF8
Идентификатор кодека/Информация : UTF-8 Plain Text
Продолжительность : 1 ч. 23 м.
Битрейт : 74 бит/сек
Count of elements : 1293
Размер потока : 45,7 Кбайт (0%)
Заголовок : English
Язык : English
Default : Нет
Forced : Нет



Скачать Я.достану.тебя.ублюдок.I'm.Gonna.Git.You.Sucka.(Кинен.Айвори.Уайанс).[1988.боевик.комедия.пародия.BDRip-AVC].[MVO]+[DVO]+[Оригинал]+[Sub].torrent без регистрации
Золото ЗОЛОТАЯ РАЗДАЧА! СКАЧАННОЕ НЕ ЗАСЧИТЫВАЕТСЯ! Золото
Дата: Зарегистрирован   [ Тип: внутренний ] Как тут cкачать?
MAGNET ссылка
MAGNET ссылка


Скачать .torrent

11 KB

Статус: проверено DHT
Скачан: торрент - 9 раз, раздача полностью - 4 раз
Размер: 2,14 GB
Оценка:  - (Голосов: 0)
Поблагодарили: 1
Поделиться ссылкой на эту раздачу с друзьями:
В контактеFacebookОдноклассникиTwitterLivejournalМой МирLiveinternet
 

 
Показать сообщения:    


Вы не можете начинать темы
Вы не можете отвечать на сообщения
Вы не можете редактировать свои сообщения
Вы не можете удалять свои сообщения
Вы не можете голосовать в опросах
Вы не можете прикреплять файлы к сообщениям
Вы можете скачивать файлы