Loading...
Error

Скачать В жопу академию / Up the Academy (Роберт Дауни ст.) [1980 г., комедия, DVDRip-AVC] [AVO (Дольский)] торрент без регистрации

 
Статистика раздачи
Размер:  1,37 GB   |    Скачан:  15 раз

Полного источника не было: 9 дней

 
Автор Сообщение

durik

[] 

В жопу академию / Up the Academy

Информация о фильме
Название: В жопу академию
Оригинальное название: Up the Academy
Год выхода: 1980
Жанр: комедия
Режиссер: Роберт Дауни ст.
В ролях: Уенделл Браун, Томми Ситера, Хатч Паркер, Ральф Маччио, Гарри Тейновиц, Том Постон, Йен Вульф, Антонио Фаргас, Стейси Нелкин, Барбара Бах

О фильме:
Четыре парня по разным причинам попадают в военную академию, где суровая дисциплина не дает расслабиться ни на минуту, но эти ребята знают, как выйти сухими из воды и как следует оттянуться…



Страна: США
Студия: Warner Bros.
Продолжительность: 01:29:53
Перевод: Авторский (одноголосый закадровый) [А. Дольский]

Файл
Кодек: AVC
Качество: DVDRip-AVC
Видео: 720x360@853x360, 1991 kbps, 23,976 fps, 0,320 Bits/(Pixel*Frame)
Звук: AC3, 48 kHz, 2 ch, 192 kbps
Субтитры: Нет
Общее
Уникальный идентификатор : 255010477338350185456001949066891942422 (0xBFD93B3FE7507D23B4D0BAC4397CDA16)
Полное имя : F:\Up.The.Academy.1980.DVDRip_by_Bathory.mkv
Формат : Matroska
Версия формата : Version 4 / Version 2
Размер файла : 1,37 Гбайт
Продолжительность : 1 ч. 29 м.
Общий поток : 2179 Кбит/сек
Дата кодирования : UTC 2016-06-22 16:58:13
Программа кодирования : mkvmerge v8.6.1 ('Flying') 64bit
Библиотека кодирования : libebml v1.3.3 + libmatroska v1.4.4

Видео
Идентификатор : 1
Формат : AVC
Формат/Информация : Advanced Video Codec
Профиль формата : High@L4.1
Параметр CABAC формата : Да
Параметр ReFrames формата : 12 кадров
Идентификатор кодека : V_MPEG4/ISO/AVC
Продолжительность : 1 ч. 29 м.
Битрейт : 1991 Кбит/сек
Ширина : 720 пикселей
Высота : 360 пикселей
Соотношение сторон : 2,35:1
Соотношение сторон в оригинале : 2,40:1
Режим частоты кадров : Постоянный
Частота кадров : 23,976 (24000/1001) кадра/сек
Цветовое пространство : YUV
Субдискретизация насыщенности : 4:2:0
Битовая глубина : 8 бит
Тип развёртки : Прогрессивная
Бит/(Пиксели*Кадры) : 0.320
Размер потока : 1,25 Гбайт (91%)
Библиотека кодирования : x264 core 148 r2692 64f4e24
Настройки программы : cabac=1 / ref=12 / deblock=1:-3:-3 / analyse=0x3:0x133 / me=umh / subme=11 / psy=1 / psy_rd=1.10:0.10 / mixed_ref=1 / me_range=32 / chroma_me=1 / trellis=2 / 8x8dct=1 / cqm=0 / deadzone=21,11 / fast_pskip=0 / chroma_qp_offset=-3 / threads=11 / lookahead_threads=2 / sliced_threads=0 / nr=0 / decimate=0 / interlaced=0 / bluray_compat=0 / constrained_intra=0 / bframes=16 / b_pyramid=2 / b_adapt=2 / b_bias=0 / direct=3 / weightb=1 / open_gop=0 / weightp=2 / keyint=240 / keyint_min=23 / scenecut=0 / intra_refresh=0 / rc_lookahead=60 / rc=2pass / mbtree=1 / bitrate=1991 / ratetol=1.0 / qcomp=0.70 / qpmin=0 / qpmax=51 / qpstep=4 / cplxblur=15.0 / qblur=0.5 / vbv_maxrate=50000 / vbv_bufsize=62500 / nal_hrd=none / filler=0 / ip_ratio=1.40 / aq=2:1.00
Default : Да
Forced : Нет

Аудио
Идентификатор : 2
Формат : AC-3
Формат/Информация : Audio Coding 3
Расширение режима : CM (complete main)
Параметр Endianness формата : Big
Идентификатор кодека : A_AC3
Продолжительность : 1 ч. 27 м.
Вид битрейта : Постоянный
Битрейт : 192 Кбит/сек
Каналы : 2 канала
Расположение каналов : Front: L R
Частота : 48,0 КГц
Частота кадров : 31,250 кадров/сек (1536 spf)
Метод сжатия : С потерями
Задержка видео : 23 с.
Размер потока : 120 Мбайт (9%)
Default : Да
Forced : Нет
Релиз от:

Автор рипа: Bathory



Скачать В.жопу.академию.Up.the.Academy.(Роберт.Дауни.ст.).[1980.г.комедия.DVDRip-AVC].[AVO.(Дольский)].torrent без регистрации
Золото ЗОЛОТАЯ РАЗДАЧА! СКАЧАННОЕ НЕ ЗАСЧИТЫВАЕТСЯ! Золото
Дата: Зарегистрирован   [ Тип: внутренний ] Как тут cкачать?
MAGNET ссылка
MAGNET ссылка


Скачать .torrent

14 KB

Статус: * не проверено
Скачан: торрент - 15 раз, раздача полностью - 9 раз
Размер: 1,37 GB
Оценка:  - (Голосов: 0)
Поблагодарили: 2
Поделиться ссылкой на эту раздачу с друзьями:
В контактеFacebookОдноклассникиTwitterLivejournalМой МирLiveinternet
 

 
Показать сообщения:    


Вы не можете начинать темы
Вы не можете отвечать на сообщения
Вы не можете редактировать свои сообщения
Вы не можете удалять свои сообщения
Вы не можете голосовать в опросах
Вы не можете прикреплять файлы к сообщениям
Вы можете скачивать файлы