Loading...
Error

Скачать Подчинение / Submission (сезон 01) (Джеки Ст. Джеймс) [2016, драма, мелодрама, детектив, HDTVRip] [DVO (HamsterStudio)] торрент без регистрации

 
Статистика раздачи
Размер:  1,47 GB   |    Скачан:  11 раз
Сидов:  25  [  0 KB/s  ]   Личеров:  2  [  0 KB/s  ]  
 
Автор Сообщение

МихаНЕзатор

[] 

Информация о фильме
Название: Подчинение
Оригинальное название: Submission
Год выхода: 2016
Жанр: драма, мелодрама, детектив
Режиссер: Джеки Ст. Джеймс

В ролях: Эшлинн Йенни, Джастин Берти, Скин Даймонд, Виктория Ливайн, Кевин Нельсон, Ника Хитрова, Брент Харви, Ричи Кэлхун, Сара Лав, Валери Бэйбер

О фильме: Сексуальное пробуждение прекрасной, но неудовлетворенной Эшли наступает в тот момент, когда она находит популярный эротический роман «Рабыня» Нолана Китса. Ее увлечение таинственным автором заводит ее в сексуальный, но опасный любовный треугольник, где все не те, кем кажутся, и где фантазии сходят со страниц книг.



Релиз от: HamsterStudio

Страна: США
Студия: Plausible Films
Продолжительность: ~00:25:00 серия
Перевод: Любительский двухголосый [HamsterStudio]

Файл
Кодек: XviD
Качество: HDTVRip
Видео: 720x400, 1 268 Kbps, 23.976 (23976/1000) fps
Звук: MP3, 128 кб/с (2 ch)

АНОНСЫ ПОПУЛЯРНЫХ РАЗДАЧ
General
Complete name : /home/roma/Відео/Подчинение (Submission)/Submission.S01E01.HDTVRip.HamsterStudio.avi
Format : AVI
Format/Info : Audio Video Interleave
File size : 251 MiB
Duration : 24mn 56s
Overall bit rate : 1 405 Kbps
Writing application : VirtualDubModRus 1.5.10.2 (build 2540/release)
Writing library : VirtualDubMod build 2540/release

Video
ID : 0
Format : MPEG-4 Visual
Format profile : Advanced Simple@L5
Format settings, BVOP : 1
Format settings, QPel : No
Format settings, GMC : No warppoints
Format settings, Matrix : Default (H.263)
Codec ID : XVID
Codec ID/Hint : XviD
Duration : 24mn 56s
Bit rate : 1 268 Kbps
Width : 720 pixels
Height : 400 pixels
Display aspect ratio : 16:9
Frame rate : 23.976 (23976/1000) fps
Color space : YUV
Chroma subsampling : 4:2:0
Bit depth : 8 bits
Scan type : Progressive
Compression mode : Lossy
Bits/(Pixel*Frame) : 0.184
Stream size : 226 MiB (90%)
Writing library : XviD 1.2.1 (UTC 2008-12-04)

Audio
ID : 1
Format : MPEG Audio
Format version : Version 1
Format profile : Layer 3
Mode : Joint stereo
Mode extension : MS Stereo
Codec ID : 55
Codec ID/Hint : MP3
Duration : 24mn 56s
Bit rate mode : Constant
Bit rate : 128 Kbps
Channel(s) : 2 channels
Sampling rate : 48.0 KHz
Compression mode : Lossy
Stream size : 22.8 MiB (9%)
Alignment : Aligned on interleaves
Interleave, duration : 42 ms (1.00 video frame)
Interleave, preload duration : 504 ms



Скачать Подчинение.Submission.(сезон.01).(Джеки.Ст.Джеймс).[2016.драма.мелодрама.детектив.HDTVRip].[DVO.(HamsterStudio)].torrent без регистрации
Золото ЗОЛОТАЯ РАЗДАЧА! СКАЧАННОЕ НЕ ЗАСЧИТЫВАЕТСЯ! Золото
Дата: Зарегистрирован   [ Тип: внешний ] Как тут cкачать?
MAGNET ссылка
MAGNET ссылка


Скачать .torrent

31 KB

Статус: проверено DHT
Скачан: торрент - 11 раз, раздача полностью - 27 раз
Размер: 1,47 GB
Оценка:  - (Голосов: 0)
Поблагодарили: 0
Поделиться ссылкой на эту раздачу с друзьями:
В контактеFacebookОдноклассникиTwitterLivejournalМой МирLiveinternet
 

 
Показать сообщения:    


Вы не можете начинать темы
Вы не можете отвечать на сообщения
Вы не можете редактировать свои сообщения
Вы не можете удалять свои сообщения
Вы не можете голосовать в опросах
Вы не можете прикреплять файлы к сообщениям
Вы можете скачивать файлы