Loading...
Error

Скачать Достопочтенный джентльмен / The Distinguished Gentleman (Джонатан Линн) [1992, комедия, криминал, HDTVRip-AVC] [MVO]x2+[AVO] торрент без регистрации

 
Статистика раздачи
Размер:  2,48 GB   |    Скачан:  13 раз
Сидов:  1  [  0 KB/s  ]  
 
Автор Сообщение

Marsianka

[] 

Производство: США
Жанр: комедия, криминал

Режиссер: Джонатан Линн
Актеры: Эдди Мёрфи, Лейн Смит, Шерил Ли Ральф, Джо Дон Бейкер, Виктория Роуэлл, Грант Шод, Кевин МакКарти, Чарльз С. Даттон, Виктор Риверс, Чи МакБрайд

Описание: Хитрый мошенник из Флориды хоть и не бедствует, но все же понимает, что больших денег в этой глуши ему не заработать. Его призывно манят столичные толстосумы, с которыми он мог бы дать волю своему таланту. А где их больше всего? Конечно же в Белом Доме! И ловкий плут отправляется на покорение вершин большой политики, ведь именно там его таланты, как ни странно, оказываются наиболее уместными.



Продолжительность: 01:52:20
Качество видео: HDTVRip-AVC
Перевод: Профессиональный многоголосый, авторский
Субтитры: Отсутствуют

Видео: AVC, 1024x556 (16:9), 23.976 fps, 2 577 Kbps (0.189 bit/pixel)
Аудио #1: AC-3, 48.0 KHz, 2 ch, 192 Kbps (Russian) | Многоголосый (СТС)
Аудио #2: AC-3, 48.0 KHz, 2 ch, 192 Kbps (Russian) | Многоголосый (Видеосервис)
Аудио #3: AC-3, 48.0 KHz, 2 ch, 192 Kbps (Russian) | Авторский (Михалев)

Формат : Matroska
Версия формата : Version 2
Размер файла : 2,48 Гбайт
Продолжительность : 1 ч. 52 м.
Общий поток : 3154 Кбит/сек
Дата кодирования : UTC 2016-06-23 08:05:55
Программа кодирования : mkvmerge v5.3.0 ('I could have danced') built on Feb 9 2012 10:38:07
Библиотека кодирования : libebml v1.2.3 + libmatroska v1.3.0
Attachment : Yes

Видео
Идентификатор : 1
Формат : AVC
Формат/Информация : Advanced Video Codec
Профиль формата : High@L4.1
Параметр CABAC формата : Да
Параметр ReFrames формата : 12 кадров
Идентификатор кодека : V_MPEG4/ISO/AVC
Продолжительность : 1 ч. 52 м.
Битрейт : 2577 Кбит/сек
Ширина : 1024 пикселя
Высота : 556 пикселей
Соотношение сторон : 1,85:1
Режим частоты кадров : Постоянный
Частота кадров : 23,976 кадра/сек
Цветовое пространство : YUV
Субдискретизация насыщенности : 4:2:0
Битовая глубина : 8 бит
Тип развёртки : Прогрессивная
Бит/(Пиксели*Кадры) : 0.189
Размер потока : 1,97 Гбайт (80%)
Библиотека кодирования : x264 core 146 r2538 121396c
Настройки программы : cabac=1 / ref=12 / deblock=1:-2:-2 / analyse=0x3:0x133 / me=umh / subme=11 / psy=1 / psy_rd=1.00:0.10 / mixed_ref=1 / me_range=32 / chroma_me=1 / trellis=2 / 8x8dct=1 / cqm=0 / deadzone=21,11 / fast_pskip=0 / chroma_qp_offset=-3 / threads=12 / lookahead_threads=2 / sliced_threads=0 / nr=0 / decimate=0 / interlaced=0 / bluray_compat=0 / constrained_intra=0 / bframes=9 / b_pyramid=2 / b_adapt=2 / b_bias=0 / direct=3 / weightb=1 / open_gop=0 / weightp=2 / keyint=240 / keyint_min=23 / scenecut=40 / intra_refresh=0 / rc_lookahead=40 / rc=2pass / mbtree=0 / bitrate=2577 / ratetol=1.0 / qcomp=0.60 / qpmin=0 / qpmax=69 / qpstep=4 / cplxblur=20.0 / qblur=0.5 / vbv_maxrate=50000 / vbv_bufsize=62500 / nal_hrd=none / filler=0 / ip_ratio=1.40 / pb_ratio=1.30 / aq=2:0.80
Default : Да
Forced : Нет

Аудио #1
Идентификатор : 2
Формат : AC-3
Формат/Информация : Audio Coding 3
Расширение режима : CM (complete main)
Параметр Endianness формата : Big
Идентификатор кодека : A_AC3
Продолжительность : 1 ч. 52 м.
Вид битрейта : Постоянный
Битрейт : 192 Кбит/сек
Каналы : 2 канала
Расположение каналов : Front: L R
Частота : 48,0 КГц
Битовая глубина : 16 бит
Метод сжатия : С потерями
Размер потока : 154 Мбайт (6%)
Заголовок : ОРТ
Язык : Russian
Default : Да
Forced : Нет

Аудио #2
Идентификатор : 3
Формат : AC-3
Формат/Информация : Audio Coding 3
Расширение режима : CM (complete main)
Параметр Endianness формата : Big
Идентификатор кодека : A_AC3
Продолжительность : 1 ч. 52 м.
Вид битрейта : Постоянный
Битрейт : 192 Кбит/сек
Каналы : 2 канала
Расположение каналов : Front: L R
Частота : 48,0 КГц
Битовая глубина : 16 бит
Метод сжатия : С потерями
Размер потока : 154 Мбайт (6%)
Заголовок : Многоголосый
Язык : Russian
Default : Нет
Forced : Нет

Аудио #3
Идентификатор : 4
Формат : AC-3
Формат/Информация : Audio Coding 3
Расширение режима : CM (complete main)
Параметр Endianness формата : Big
Идентификатор кодека : A_AC3
Продолжительность : 1 ч. 52 м.
Вид битрейта : Постоянный
Битрейт : 192 Кбит/сек
Каналы : 2 канала
Расположение каналов : Front: L R
Частота : 48,0 КГц
Битовая глубина : 16 бит
Метод сжатия : С потерями
Размер потока : 154 Мбайт (6%)
Заголовок : Михалёв
Язык : Russian
Default : Нет
Forced : Нет



Скачать Достопочтенный.джентльмен.The.Distinguished.Gentleman.(Джонатан.Линн).[1992.комедия.криминал.HDTVRip-AVC].[MVO]x2+[AVO].torrent без регистрации
Золото ЗОЛОТАЯ РАЗДАЧА! СКАЧАННОЕ НЕ ЗАСЧИТЫВАЕТСЯ! Золото
Дата: Зарегистрирован   [ Тип: внутренний ] Как тут cкачать?
MAGNET ссылка
MAGNET ссылка


Скачать .torrent

13 KB

Статус: проверено DHT
Скачан: торрент - 13 раз, раздача полностью - 8 раз
Размер: 2,48 GB
Оценка:  - (Голосов: 0)
Поблагодарили: 1
Поделиться ссылкой на эту раздачу с друзьями:
В контактеFacebookОдноклассникиTwitterLivejournalМой МирLiveinternet
 

 
Показать сообщения:    


Вы не можете начинать темы
Вы не можете отвечать на сообщения
Вы не можете редактировать свои сообщения
Вы не можете удалять свои сообщения
Вы не можете голосовать в опросах
Вы не можете прикреплять файлы к сообщениям
Вы можете скачивать файлы