Loading...
Error

Скачать Умник / Cleverman (сезон 01) (Уэйн Блэр, Леа Пурселл) [2016, фантастика, WEB-DL] [720p] [MVO (Несмертельное оружие)]+[Original] торрент без регистрации

 
Статистика раздачи
Размер:  9,6 GB   |    Скачан:  81 раз
Сидов:  1  [  0 KB/s  ]  
 
Автор Сообщение

МихаНЕзатор

[] 


«Сезон: 1 / Серии: 1-6 (6)»

Информация о сериале
Название: Мудрец
Оригинальное название: Cleverman
Год выхода: 2016
Страна: США , Австралия, Новая Зеландия
Студии: Goalpost Pictures / Pukeko Pictures
Жанр: фантастика
Продолжительность: 1 x ~50 мин.
Перевод: Любительский (многоголосый закадровый) - [KinoView] ex-Несмертельное оружие
Cубтитры: отсутствуют
Режиссеры: Уэйн Блэр, Леа Пурселл

В ролях: Хантер Пейдж-Лошар, Роб Коллинс, Иэн Глен, Райан Корр, Тасма Уолтон, Джада Альбертс, Тамала Шелтон, Дебора Мэйлман, Фрэнсис О’Коннор, Рондда Финдлтон, Стэф Доусон, Мансур Нур, Джек Чарльз, Эндрю МакФарлэйн и др.

Описание: Действие сериала разворачивается в недалеком будущем. Существа из австралийских мифов и легенд проникли в нашу реальность и захватили мир людей, и теперь человечество вынуждено ютиться в небольшой общине, опасаясь за свою жизнь. В центре событий — история двух братьев, которые, несмотря на давнюю вражду, объединяют усилия в борьбе за выживание.



Релиз от: KinoView

Файл
Качество: WEB-DL 720p
Формат: MKV
Видео кодек: H264
Аудио кодек: AC3

Видео: 1280x718 (16:9), 23.976 fps, ~3961 Kbps, 0.180 bit/pixel
| Аудио #1: 48 kHz, AC3 Dolby Digital, 2.0, ~192.00 kbps | Rus | MVO
| Аудио #2: 48 kHz, AC3 Dolby Digital, 5.1, ~384.00 kbps | Eng | Original

АНОНСЫ ПОПУЛЯРНЫХ РАЗДАЧ


Торрент обновлён, добавлена 6-я серия!

Эпизод: 01 - «Первый контакт» (First Contact)

General
Unique ID : 208530823606546123065322016976773371151 (0x9CE193646D8A2F90B0B62131C17CD50F)
Complete name : Cleverman.S01E01.First.Contact.WEB-DL.720p.H.264.RUS.-KinoView.mkv
Format : Matroska
Format version : Version 2
File size : 1.63 GiB
Duration : 50mn 31s
Overall bit rate : 4 629 Kbps
Movie name : Мудрец / Cleverman / Сезон: 1 / Эпизод: 01 - Первый контакт
Encoded date : UTC 2016-06-25 17:55:28
Writing application : mkvmerge v5.2.1 ('A Far Off Place') built on Jan 2 2012 23:21:10
Writing library : libebml v1.2.3 + libmatroska v1.3.0
Cover : Yes
Attachments : Cover.jpg

Video
ID : 1
Format : AVC
Format/Info : Advanced Video Codec
Format profile : High@L3.1
Format settings, CABAC : No
Format settings, ReFrames : 2 frames
Muxing mode : Header stripping
Codec ID : V_MPEG4/ISO/AVC
Duration : 50mn 31s
Bit rate : 3 961 Kbps
Width : 1 280 pixels
Height : 718 pixels
Display aspect ratio : 16:9
Frame rate mode : Constant
Frame rate : 23.976 fps
Color space : YUV
Chroma subsampling : 4:2:0
Bit depth : 8 bits
Scan type : Progressive
Bits/(Pixel*Frame) : 0.180
Stream size : 1.40 GiB (86%)
Title : Релиз от: KinoView
Language : English
Default : Yes
Forced : No
Color range : Limited
Color primaries : BT.709
Transfer characteristics : BT.709
Matrix coefficients : BT.709

Audio #1
ID : 2
Format : AC-3
Format/Info : Audio Coding 3
Mode extension : CM (complete main)
Format settings, Endianness : Big
Muxing mode : Header stripping
Codec ID : A_AC3
Duration : 50mn 31s
Bit rate mode : Constant
Bit rate : 192 Kbps
Channel(s) : 2 channels
Channel positions : Front: L R
Sampling rate : 48.0 KHz
Frame rate : 31.250 fps (1536 spf)
Compression mode : Lossy
Stream size : 69.4 MiB (4%)
Title : MVO (KinoView)
Language : Russian
Default : Yes
Forced : No

Audio #2
ID : 3
Format : AC-3
Format/Info : Audio Coding 3
Mode extension : CM (complete main)
Format settings, Endianness : Big
Muxing mode : Header stripping
Codec ID : A_AC3
Duration : 50mn 31s
Bit rate mode : Constant
Bit rate : 384 Kbps
Channel(s) : 6 channels
Channel positions : Front: L C R, Side: L R, LFE
Sampling rate : 48.0 KHz
Frame rate : 31.250 fps (1536 spf)
Compression mode : Lossy
Stream size : 139 MiB (8%)
Title : Original
Language : English
Default : No
Forced : No



Скачать Умник.Cleverman.(сезон.01).(Уэйн.Блэр.Леа.Пурселл).[2016.фантастика.WEB-DL].[720p].[MVO.(Несмертельное.оружие)]+[Original].torrent без регистрации
Золото ЗОЛОТАЯ РАЗДАЧА! СКАЧАННОЕ НЕ ЗАСЧИТЫВАЕТСЯ! Золото
Дата: Зарегистрирован   [ Тип: внутренний ] Как тут cкачать?
MAGNET ссылка
MAGNET ссылка


Скачать .torrent

25 KB

Статус: проверено DHT
Скачан: торрент - 81 раз, раздача полностью - 4 раз
Размер: 9,6 GB
Оценка:  - (Голосов: 0)
Поблагодарили: 1
Поделиться ссылкой на эту раздачу с друзьями:
В контактеFacebookОдноклассникиTwitterLivejournalМой МирLiveinternet
 

 
Показать сообщения:    


Вы не можете начинать темы
Вы не можете отвечать на сообщения
Вы не можете редактировать свои сообщения
Вы не можете удалять свои сообщения
Вы не можете голосовать в опросах
Вы не можете прикреплять файлы к сообщениям
Вы можете скачивать файлы