Loading...
Error

Скачать Сбрось маму с поезда / Throw Momma from the Train [1987, комедия, приключения, криминал, BDRip-AVC] [Dub]+[MVO]x2+[DVO]+[AVO]+[Оригинал]+[Sub]x2 торрент без регистрации

 
Статистика раздачи
Размер:  2,54 GB   |    Скачан:  8 раз

Полного источника не было: 19 минут

 
Автор Сообщение

Marsianka

[] 

Производство: США / Orion Pictures
Жанр: комедия, приключения, криминал

Режиссер: Дэнни ДеВито
Актеры: Дэнни ДеВито, Билли Кристал, Ким Грайст, Энн Рэмси, Кейт Малгрю, Branford Marsalis, Роб Райнер, Брюс Кирби, Джои ДеПинто, Энни Росс

Описание:
Оказывается, даже у столь разных людей может быть что-то общее. Объединяющим мотивом является желание избавиться, причем самым действенным способом, от близкого человека. Один хочет убить свою бывшую жену, которая все еще умудряется превращать его жизнь в ад, второй видит сны о свободной радостной жизни, которым не суждено сбыться из-за буйной, деспотичной мамаши, продолжающей шпынять своего сына, не обращая внимания на его уже совсем не юный возраст. Им кажется, что в такой ситуации лучшим решением избежать наказания — это поменяться убийствами…



Продолжительность: 01:27:32
Качество видео: BDRip-AVC

Видео: AVC, 1024x556 (16:9), 23.976 fps, 2 973 Kbps (0.218 bit/pixel)
Дублированный, профессиональный многоголосый, профессиональный двухголосый, авторский одноголосый
Язык субтитров: Русский, английский
Вид субтитров: Вшитые отключаемые
Аудио #1: AC-3, 48.0 KHz, 2 ch, 192 Kbps (Russian) - дублированный (Хлопушка)
Аудио #2: AC-3, 48.0 KHz, 2 ch, 192 Kbps (Russian) - авторский одноголосый (A. Михалёв)
Аудио #3: AC-3, 48.0 KHz, 2 ch, 192 Kbps (Russian) - профессиональный двухголосый (НТВ+)
Аудио #4: AC-3, 48.0 KHz, 2 ch, 192 Kbps (Russian) - профессиональный многоголосый (Позитив-Мультимедиа)
Аудио #5: AC-3, 48.0 KHz, 2 ch, 192 Kbps (Russian) - профессиональный многоголосый (СТС)
Аудио #6: AC-3, 48.0 KHz, 2 ch, 192 Kbps (English) - оригинал

Формат : Matroska
Версия формата : Version 2
Размер файла : 2,54 Гбайт
Продолжительность : 1 ч. 27 м.
Общий поток : 4147 Кбит/сек
Дата кодирования : UTC 2016-06-25 10:57:59
Программа кодирования : mkvmerge v5.3.0 ('I could have danced') built on Feb 9 2012 10:38:07
Библиотека кодирования : libebml v1.2.3 + libmatroska v1.3.0
Attachment : Yes

Видео
Идентификатор : 1
Формат : AVC
Формат/Информация : Advanced Video Codec
Профиль формата : High@L4.1
Параметр CABAC формата : Да
Параметр ReFrames формата : 12 кадров
Идентификатор кодека : V_MPEG4/ISO/AVC
Продолжительность : 1 ч. 27 м.
Битрейт : 2973 Кбит/сек
Ширина : 1024 пикселя
Высота : 556 пикселей
Соотношение сторон : 1,85:1
Режим частоты кадров : Постоянный
Частота кадров : 23,976 кадра/сек
Цветовое пространство : YUV
Субдискретизация насыщенности : 4:2:0
Битовая глубина : 8 бит
Тип развёртки : Прогрессивная
Бит/(Пиксели*Кадры) : 0.218
Размер потока : 1,78 Гбайт (70%)
Библиотека кодирования : x264 core 146 r2538 121396c
Настройки программы : cabac=1 / ref=12 / deblock=1:-2:-2 / analyse=0x3:0x133 / me=umh / subme=11 / psy=1 / psy_rd=1.00:0.10 / mixed_ref=1 / me_range=32 / chroma_me=1 / trellis=2 / 8x8dct=1 / cqm=0 / deadzone=21,11 / fast_pskip=0 / chroma_qp_offset=-3 / threads=12 / lookahead_threads=2 / sliced_threads=0 / nr=0 / decimate=0 / interlaced=0 / bluray_compat=0 / constrained_intra=0 / bframes=9 / b_pyramid=2 / b_adapt=2 / b_bias=0 / direct=3 / weightb=1 / open_gop=0 / weightp=2 / keyint=240 / keyint_min=23 / scenecut=40 / intra_refresh=0 / rc_lookahead=40 / rc=2pass / mbtree=0 / bitrate=2973 / ratetol=1.0 / qcomp=0.60 / qpmin=0 / qpmax=69 / qpstep=4 / cplxblur=20.0 / qblur=0.5 / vbv_maxrate=50000 / vbv_bufsize=62500 / nal_hrd=none / filler=0 / ip_ratio=1.40 / pb_ratio=1.30 / aq=2:0.80
Default : Да
Forced : Нет

Аудио #1
Идентификатор : 2
Формат : AC-3
Формат/Информация : Audio Coding 3
Расширение режима : CM (complete main)
Параметр Endianness формата : Big
Идентификатор кодека : A_AC3
Продолжительность : 1 ч. 27 м.
Вид битрейта : Постоянный
Битрейт : 192 Кбит/сек
Каналы : 2 канала
Расположение каналов : Front: L R
Частота : 48,0 КГц
Битовая глубина : 16 бит
Метод сжатия : С потерями
Размер потока : 120 Мбайт (5%)
Заголовок : Дублированный (Хлопушка)
Язык : Russian
Default : Да
Forced : Нет

Аудио #2
Идентификатор : 3
Формат : AC-3
Формат/Информация : Audio Coding 3
Расширение режима : CM (complete main)
Параметр Endianness формата : Big
Идентификатор кодека : A_AC3
Продолжительность : 1 ч. 27 м.
Вид битрейта : Постоянный
Битрейт : 192 Кбит/сек
Каналы : 2 канала
Расположение каналов : Front: L R
Частота : 48,0 КГц
Битовая глубина : 16 бит
Метод сжатия : С потерями
Размер потока : 120 Мбайт (5%)
Заголовок : Авторский одноголосый (A. Михалёв)
Язык : Russian
Default : Нет
Forced : Нет

Аудио #3
Идентификатор : 4
Формат : AC-3
Формат/Информация : Audio Coding 3
Профиль формата : Dolby Digital
Расширение режима : CM (complete main)
Параметр Endianness формата : Big
Идентификатор кодека : A_AC3
Продолжительность : 1 ч. 27 м.
Вид битрейта : Постоянный
Битрейт : 192 Кбит/сек
Каналы : 2 канала
Расположение каналов : Front: L R
Частота : 48,0 КГц
Битовая глубина : 16 бит
Метод сжатия : С потерями
Размер потока : 120 Мбайт (5%)
Заголовок : Профессиональный двухголосый (НТВ+)
Язык : Russian
Default : Нет
Forced : Нет

Аудио #4
Идентификатор : 5
Формат : AC-3
Формат/Информация : Audio Coding 3
Расширение режима : CM (complete main)
Параметр Endianness формата : Big
Идентификатор кодека : A_AC3
Продолжительность : 1 ч. 27 м.
Вид битрейта : Постоянный
Битрейт : 192 Кбит/сек
Каналы : 2 канала
Расположение каналов : Front: L R
Частота : 48,0 КГц
Битовая глубина : 16 бит
Метод сжатия : С потерями
Размер потока : 120 Мбайт (5%)
Заголовок : Профессиональный многоголосый (Позитив-Мультимедиа)
Язык : Russian
Default : Нет
Forced : Нет

Аудио #5
Идентификатор : 6
Формат : AC-3
Формат/Информация : Audio Coding 3
Расширение режима : CM (complete main)
Параметр Endianness формата : Big
Идентификатор кодека : A_AC3
Продолжительность : 1 ч. 27 м.
Вид битрейта : Постоянный
Битрейт : 192 Кбит/сек
Каналы : 2 канала
Расположение каналов : Front: L R
Частота : 48,0 КГц
Битовая глубина : 16 бит
Метод сжатия : С потерями
Размер потока : 120 Мбайт (5%)
Заголовок : Профессиональный многоголосый (СТС)
Язык : Russian
Default : Нет
Forced : Нет

Аудио #6
Идентификатор : 7
Формат : AC-3
Формат/Информация : Audio Coding 3
Расширение режима : CM (complete main)
Параметр Endianness формата : Big
Идентификатор кодека : A_AC3
Продолжительность : 1 ч. 27 м.
Вид битрейта : Постоянный
Битрейт : 192 Кбит/сек
Каналы : 2 канала
Расположение каналов : Front: L R
Частота : 48,0 КГц
Битовая глубина : 16 бит
Метод сжатия : С потерями
Размер потока : 120 Мбайт (5%)
Язык : English
Default : Нет
Forced : Нет

Текст #1
Идентификатор : 8
Формат : PGS
Режим смешивания : zlib
Идентификатор кодека : S_HDMV/PGS
Идентификатор кодека/Информация : The same subtitle format used on BDs/HD-DVDs
Язык : Russian
Default : Нет
Forced : Нет

Текст #2
Идентификатор : 9
Формат : PGS
Режим смешивания : zlib
Идентификатор кодека : S_HDMV/PGS
Идентификатор кодека/Информация : The same subtitle format used on BDs/HD-DVDs
Язык : English
Default : Нет
Forced : Нет

Меню
00:00:00.000 : :Chapter 01
00:06:08.159 : :Chapter 02
00:08:17.955 : :Chapter 03
00:13:10.455 : :Chapter 04
00:16:26.484 : :Chapter 05
00:19:48.854 : :Chapter 06
00:29:05.160 : :Chapter 07
00:35:31.212 : :Chapter 08
00:41:46.963 : :Chapter 09
00:49:01.897 : :Chapter 10
00:55:31.286 : :Chapter 11
01:00:28.625 : :Chapter 12
01:04:33.745 : :Chapter 13
01:10:33.312 : :Chapter 14
01:16:21.076 : :Chapter 15
01:23:08.734 : :Chapter 16



Скачать Сбрось.маму.с.поезда.Throw.Momma.from.the.Train.[1987.комедия.приключения.криминал.BDRip-AVC].[Dub]+[MVO]x2+[DVO]+[AVO]+[Оригинал]+[Sub]x2.torrent без регистрации
Золото ЗОЛОТАЯ РАЗДАЧА! СКАЧАННОЕ НЕ ЗАСЧИТЫВАЕТСЯ! Золото
Дата: Зарегистрирован   [ Тип: внутренний ] Как тут cкачать?
MAGNET ссылка
MAGNET ссылка


Скачать .torrent

13 KB

Статус: проверено DHT
Скачан: торрент - 8 раз, раздача полностью - 4 раз
Размер: 2,54 GB
Оценка:  - (Голосов: 0)
Поблагодарили: 0
Поделиться ссылкой на эту раздачу с друзьями:
В контактеFacebookОдноклассникиTwitterLivejournalМой МирLiveinternet
 

 
Показать сообщения:    


Вы не можете начинать темы
Вы не можете отвечать на сообщения
Вы не можете редактировать свои сообщения
Вы не можете удалять свои сообщения
Вы не можете голосовать в опросах
Вы не можете прикреплять файлы к сообщениям
Вы можете скачивать файлы