Loading...
Error

Скачать Челюсти 4: Месть / Jaws: The Revenge (Джозеф Сарджент) [1987, ужасы, DVDRip-AVC] [MVO]+[Оригинал]+[Sub] торрент без регистрации

 
Статистика раздачи
Размер:  2,18 GB   |    Скачан:  4 раза
Сидов:  1  [  0 KB/s  ]  
 
Автор Сообщение

Marsianka

[] 

Информация о фильме
Название: Челюсти 4: Месть
Оригинальное название: Jaws: The Revenge
Год выхода: 1987
Жанр: ужасы
Режиссер: Джозеф Сарджент
В ролях: Лоррэйн Гари, Лэнс Гест, Марио Ван Пиблз, Майкл Кейн, Карен Янг, Джудит Барси, Линн Уитфилд, Митчел Андерсон, Джей Мелло, Седрик Скотт

О фильме:
Полицейский Мартин Броди умирает от сердечного приступа. Его младший сын Шон погибает в схватке с большой белой акулой. Эллен Броди абсолютно убеждена, что гигантское белое чудовище мстит ее семье. Миссис Броди летит на Багамы к старшему сыну Майклу, который работает морским биологом, чтобы предупредить о смертельной опасности…



Страна: США
Продолжительность: 01:26:20
Перевод: Профессиональный (многоголосый закадровый)

Файл
Кодек: h.264
Качество: DVDRip-AVC
Видео: MPEG-4, 720x436 @1024x436, 25.000 fps ~2778 kbps

1) 48 KHz, AC3, 6 ch ~448 Kbps - MVO
2) 48 KHz, AC3, 6 ch ~384 Kbps - Original
Субтитры: Русские
General
Unique ID : 179061210967902676740225906923586320127 (0x86B5EF4F95F4A756805A1A064639F6FF)
Format : Matroska
Format version : Version 4 / Version 2
File size : 2.18 GiB
Duration : 1h 26mn
Overall bit rate : 3 612 Kbps
Movie name : Jaws: The Revenge (1987)
Encoded date : UTC 2016-06-01 11:30:40 / UTC
Writing application : mkvmerge v9.1.0 ('Little Earthquakes') 64bit
Writing library : libebml v1.3.3 + libmatroska v1.4.4 / Lavf55.12.0
Cover : Yes
Attachments : Cover.jpg

Video
ID : 1
Format : AVC
Format/Info : Advanced Video Codec
Format profile : High@L4.1
Format settings, CABAC : Yes
Format settings, ReFrames : 10 frames
Codec ID : V_MPEG4/ISO/AVC
Duration : 1h 26mn
Bit rate : 2 778 Kbps
Width : 720 pixels
Height : 436 pixels
Display aspect ratio : 2.35:1
Frame rate mode : Constant
Frame rate : 25.000 fps
Color space : YUV
Chroma subsampling : 4:2:0
Bit depth : 8 bits
Scan type : Progressive
Bits/(Pixel*Frame) : 0.354
Stream size : 1.63 GiB (75%)
Title : MPEG-4, 720x436 @1024x436, 25.000 fps ~2778 kbps
Writing library : x264 core 142 r2479 dd79a61
Encoding settings : cabac=1 / ref=10 / deblock=1:-3:-3 / analyse=0x3:0x133 / me=umh / subme=10 / psy=1 / psy_rd=1.00:0.18 / mixed_ref=1 / me_range=32 / chroma_me=1 / trellis=2 / 8x8dct=1 / cqm=0 / deadzone=21,11 / fast_pskip=0 / chroma_qp_offset=-3 / threads=6 / lookahead_threads=1 / sliced_threads=0 / nr=0 / decimate=1 / interlaced=0 / bluray_compat=0 / constrained_intra=0 / bframes=12 / b_pyramid=2 / b_adapt=2 / b_bias=0 / direct=3 / weightb=1 / open_gop=0 / weightp=2 / keyint=250 / keyint_min=25 / scenecut=40 / intra_refresh=0 / rc_lookahead=60 / rc=2pass / mbtree=0 / bitrate=2778 / ratetol=1.0 / qcomp=0.60 / qpmin=0 / qpmax=69 / qpstep=4 / cplxblur=20.0 / qblur=0.5 / vbv_maxrate=62500 / vbv_bufsize=78125 / nal_hrd=none / filler=0 / ip_ratio=1.40 / pb_ratio=1.30 / aq=1:1.00
Language : English
Default : Yes
Forced : No
Color range : Limited
Color primaries : BT.601 PAL
Transfer characteristics : BT.709
Matrix coefficients : BT.601
Statistics Tags Issue : mkvmerge v9.1.0 ('Little Earthquakes') 64bit 2016-06-01 11:30:40 / mkvmerge v9.1.0 ('Little Earthquakes') 64bit 2016-06-01 11:30:40 / UTC
FromStats_BitRate : 2775990
FromStats_Duration : 01:26:20.040000000
FromStats_FrameCount : 129501
FromStats_StreamSize : 1797467755

Audio #1
ID : 2
Format : AC-3
Format/Info : Audio Coding 3
Mode extension : CM (complete main)
Format settings, Endianness : Big
Codec ID : A_AC3
Duration : 1h 26mn
Bit rate mode : Constant
Bit rate : 448 Kbps
Channel(s) : 6 channels
Channel positions : Front: L C R, Side: L R, LFE
Sampling rate : 48.0 KHz
Frame rate : 31.250 fps (1536 spf)
Compression mode : Lossy
Delay relative to video : -5ms
Stream size : 277 MiB (12%)
Title : 48 KHz, AC3, 6 ch ~448 Kbps - MVO
Language : Russian
Default : Yes
Forced : No
Statistics Tags Issue : mkvmerge v9.1.0 ('Little Earthquakes') 64bit 2016-06-01 11:30:40 / mkvmerge v9.1.0 ('Little Earthquakes') 64bit 2016-06-01 11:30:40 / UTC
FromStats_BitRate : 448000
FromStats_Duration : 01:26:19.936000000
FromStats_FrameCount : 161873
FromStats_StreamSize : 290076416

Audio #2
ID : 3
Format : AC-3
Format/Info : Audio Coding 3
Mode extension : CM (complete main)
Format settings, Endianness : Big
Codec ID : A_AC3
Duration : 1h 26mn
Bit rate mode : Constant
Bit rate : 384 Kbps
Channel(s) : 6 channels
Channel positions : Front: L C R, Side: L R, LFE
Sampling rate : 48.0 KHz
Frame rate : 31.250 fps (1536 spf)
Compression mode : Lossy
Stream size : 237 MiB (11%)
Title : 48 KHz, AC3, 6 ch ~384 Kbps - Original
Language : English
Default : No
Forced : No
Statistics Tags Issue : mkvmerge v9.1.0 ('Little Earthquakes') 64bit 2016-06-01 11:30:40 / mkvmerge v9.1.0 ('Little Earthquakes') 64bit 2016-06-01 11:30:40 / UTC
FromStats_BitRate : 384000
FromStats_Duration : 01:26:19.968000000
FromStats_FrameCount : 161874
FromStats_StreamSize : 248638464

Text
ID : 4
Format : VobSub
Muxing mode : zlib
Codec ID : S_VOBSUB
Codec ID/Info : Picture based subtitle format used on DVDs
Language : Russian
Default : No
Forced : No
Statistics Tags Issue : mkvmerge v9.1.0 ('Little Earthquakes') 64bit 2016-06-01 11:30:40 / mkvmerge v9.1.0 ('Little Earthquakes') 64bit 2016-06-01 11:30:40 / UTC
FromStats_BitRate : 1972
FromStats_Duration : 01:22:04.755000000
FromStats_FrameCount : 810
FromStats_StreamSize : 1214041

Menu
00:00:00.000 : :Chapter 1
00:07:06.840 : :Chapter 2
00:13:39.720 : :Chapter 3
00:21:00.760 : :Chapter 4
00:28:03.000 : :Chapter 5
00:34:55.560 : :Chapter 6
00:45:32.160 : :Chapter 7
00:49:17.440 : :Chapter 8
00:56:55.480 : :Chapter 9
01:02:55.400 : :Chapter 10
01:08:42.320 : :Chapter 11
01:18:18.880 : :Chapter 12



Скачать Челюсти.4.Месть.Jaws.The.Revenge.(Джозеф.Сарджент).[1987.ужасы.DVDRip-AVC].[MVO]+[Оригинал]+[Sub].torrent без регистрации
Золото ЗОЛОТАЯ РАЗДАЧА! СКАЧАННОЕ НЕ ЗАСЧИТЫВАЕТСЯ! Золото
Дата: Зарегистрирован   [ Тип: внутренний ] Как тут cкачать?
MAGNET ссылка
MAGNET ссылка


Скачать .torrent

12 KB

Статус: проверено DHT
Скачан: торрент - 4 раз, раздача полностью - 10 раз
Размер: 2,18 GB
Оценка:  - (Голосов: 0)
Поблагодарили: 0
Поделиться ссылкой на эту раздачу с друзьями:
В контактеFacebookОдноклассникиTwitterLivejournalМой МирLiveinternet
 

 
Показать сообщения:    


Вы не можете начинать темы
Вы не можете отвечать на сообщения
Вы не можете редактировать свои сообщения
Вы не можете удалять свои сообщения
Вы не можете голосовать в опросах
Вы не можете прикреплять файлы к сообщениям
Вы можете скачивать файлы