Loading...
Error

Скачать Презумпция невиновности / Presumed Innocent (Алан Дж. Пакула) [1990, детектив, драма, криминал, BDRip-AVC] [Dub]+[AVO]+[Sub]+[Оригинал] торрент без регистрации

 
Статистика раздачи
Размер:  2,68 GB   |    Скачан:  8 раз
Сидов:  1  [  0 KB/s  ]  
 
Автор Сообщение

Marsianka

[] 

Производство: США, Mirage, Warner Bros. Pictures Co.
Жанр: детектив, драма, криминал
Продолжительность: 02:06:56
Перевод: Дублированный, авторский одноголосый
Субтитры: Английский

Режиссер: Алан Дж. Пакула
Актеры: Харрисон Форд, Брайан Деннехи, Рауль Хулиа, Бонни Беделиа, Пол Уинфилд, Грета Скакки, Джон Спенсер, Джо Грифази, Том Мардиросян, Анна Мария Хорсфорд, Саб Симоно, Брэдли Уитфорд, Кристин Эстабрук, Майкл Толан, Мэдисон Арнольд

Описание:
Главный герой Расти Сэбич — окружной прокурор, который за долгие годы своей карьеры привык выступать лишь в роли обвинителя. Неожиданно его начальник поручает ему провести срочное расследование убийства сотрудницы прокуратуры.
Но дело осложняется тем, что погибшая, привлекательная молодая блондинка Каролин Полимус, была любовницей Сэбича, и, в конце концов, подозрение в ее убийстве падает на него. Затевается шумный судебный процесс, и Расти обращается к очень дорогому адвокату…



Качество видео: BDRip-AVC
Видео: AVC, 1024x576 (16:9), 23.976 fps, 2 258 Kbps
Аудио #1: AC-3, 48.0 KHz, 2 ch, 192 Kbps - дубляж
Аудио #2: AC-3, 48.0 KHz, 2 ch, 192 Kbps - авторский А.Гаврилов
Аудио #3: AC-3, 48.0 KHz, 2 ch, 192 Kbps - авторский А.Михалёв
Аудио #4: AC-3, 48.0 KHz, 2 ch, 192 Kbps - оригинал
[code]
Формат : Matroska
Версия формата : Version 2
Размер файла : 2,68 Гбайт
Продолжительность : 2 ч. 6 м.
Общий поток : 3027 Кбит/сек
Дата кодирования : UTC 2016-06-26 14:59:12
Программа кодирования : mkvmerge v5.3.0 ('I could have danced') built on Feb 9 2012 10:38:07
Библиотека кодирования : libebml v1.2.3 + libmatroska v1.3.0
Attachment : Yes

Видео
Идентификатор : 1
Формат : AVC
Формат/Информация : Advanced Video Codec
Профиль формата : High@L4.1
Параметр CABAC формата : Да
Параметр ReFrames формата : 11 кадров
Идентификатор кодека : V_MPEG4/ISO/AVC
Продолжительность : 2 ч. 6 м.
Битрейт : 2258 Кбит/сек
Ширина : 1024 пикселя
Высота : 576 пикселей
Соотношение сторон : 16:9
Режим частоты кадров : Постоянный
Частота кадров : 23,976 кадра/сек
Цветовое пространство : YUV
Субдискретизация насыщенности : 4:2:0
Битовая глубина : 8 бит
Тип развёртки : Прогрессивная
Бит/(Пиксели*Кадры) : 0.160
Размер потока : 1,95 Гбайт (73%)
Библиотека кодирования : x264 core 146 r2538 121396c
Настройки программы : cabac=1 / ref=11 / deblock=1:-3:-3 / analyse=0x3:0x133 / me=umh / subme=11 / psy=1 / psy_rd=1.00:0.10 / mixed_ref=1 / me_range=32 / chroma_me=1 / trellis=2 / 8x8dct=1 / cqm=0 / deadzone=21,11 / fast_pskip=0 / chroma_qp_offset=-3 / threads=12 / lookahead_threads=2 / sliced_threads=0 / nr=0 / decimate=0 / interlaced=0 / bluray_compat=0 / constrained_intra=0 / bframes=8 / b_pyramid=2 / b_adapt=2 / b_bias=0 / direct=3 / weightb=1 / open_gop=0 / weightp=2 / keyint=240 / keyint_min=23 / scenecut=40 / intra_refresh=0 / rc_lookahead=40 / rc=2pass / mbtree=0 / bitrate=2258 / ratetol=1.0 / qcomp=0.60 / qpmin=0 / qpmax=69 / qpstep=4 / cplxblur=20.0 / qblur=0.5 / vbv_maxrate=50000 / vbv_bufsize=62500 / nal_hrd=none / filler=0 / ip_ratio=1.40 / pb_ratio=1.30 / aq=1:0.90
Default : Да
Forced : Нет

Аудио #1
Идентификатор : 2
Формат : AC-3
Формат/Информация : Audio Coding 3
Расширение режима : CM (complete main)
Параметр Endianness формата : Big
Идентификатор кодека : A_AC3
Продолжительность : 2 ч. 6 м.
Вид битрейта : Постоянный
Битрейт : 192 Кбит/сек
Каналы : 2 канала
Расположение каналов : Front: L R
Частота : 48,0 КГц
Битовая глубина : 16 бит
Метод сжатия : С потерями
Размер потока : 174 Мбайт (6%)
Заголовок : Дублированный
Язык : Russian
Default : Да
Forced : Нет

Аудио #2
Идентификатор : 3
Формат : AC-3
Формат/Информация : Audio Coding 3
Расширение режима : CM (complete main)
Параметр Endianness формата : Big
Идентификатор кодека : A_AC3
Продолжительность : 2 ч. 6 м.
Вид битрейта : Постоянный
Битрейт : 192 Кбит/сек
Каналы : 2 канала
Расположение каналов : Front: L R
Частота : 48,0 КГц
Битовая глубина : 16 бит
Метод сжатия : С потерями
Размер потока : 174 Мбайт (6%)
Заголовок : Гаврилов
Язык : Russian
Default : Нет
Forced : Нет

Аудио #3
Идентификатор : 4
Формат : AC-3
Формат/Информация : Audio Coding 3
Расширение режима : CM (complete main)
Параметр Endianness формата : Big
Идентификатор кодека : A_AC3
Продолжительность : 2 ч. 6 м.
Вид битрейта : Постоянный
Битрейт : 192 Кбит/сек
Каналы : 2 канала
Расположение каналов : Front: L R
Частота : 48,0 КГц
Битовая глубина : 16 бит
Метод сжатия : С потерями
Размер потока : 174 Мбайт (6%)
Заголовок : Михалёв
Язык : Russian
Default : Нет
Forced : Нет

Аудио #4
Идентификатор : 5
Формат : AC-3
Формат/Информация : Audio Coding 3
Расширение режима : CM (complete main)
Параметр Endianness формата : Big
Идентификатор кодека : A_AC3
Продолжительность : 2 ч. 6 м.
Вид битрейта : Постоянный
Битрейт : 192 Кбит/сек
Каналы : 2 канала
Расположение каналов : Front: L R
Частота : 48,0 КГц
Битовая глубина : 16 бит
Метод сжатия : С потерями
Размер потока : 174 Мбайт (6%)
Язык : English
Default : Нет
Forced : Нет

Текст
Идентификатор : 6
Формат : UTF-8
Идентификатор кодека : S_TEXT/UTF8
Идентификатор кодека/Информация : UTF-8 Plain Text
Язык : English
Default : Нет
Forced : Нет

Меню
00:00:00.000 : en:Chapter 01
00:03:43.348 : en:Chapter 02
00:07:49.594 : en:Chapter 03
00:11:56.925 : en:Chapter 04
00:14:29.035 : en:Chapter 05
00:18:57.094 : en:Chapter 06
00:24:28.217 : en:Chapter 07
00:26:27.211 : en:Chapter 08
00:29:34.648 : en:Chapter 09
00:32:21.815 : en:Chapter 10
00:35:44.809 : en:Chapter 11
00:39:03.883 : en:Chapter 12
00:40:37.101 : en:Chapter 13
00:43:40.785 : en:Chapter 14
00:47:38.314 : en:Chapter 15
00:49:33.137 : en:Chapter 16
00:51:53.986 : en:Chapter 17
00:57:31.698 : en:Chapter 18
01:00:54.985 : en:Chapter 19
01:04:35.330 : en:Chapter 20
01:08:36.738 : en:Chapter 21
01:12:46.696 : en:Chapter 22
01:15:44.582 : en:Chapter 23
01:24:27.771 : en:Chapter 24
01:28:12.120 : en:Chapter 25
01:32:08.648 : en:Chapter 26
01:36:33.746 : en:Chapter 27
01:38:23.606 : en:Chapter 28
01:45:23.859 : en:Chapter 29
01:46:33.345 : en:Chapter 30
01:49:11.545 : en:Chapter 31
01:51:03.490 : en:Chapter 32
01:53:04.111 : en:Chapter 33
01:56:54.549 : en:Chapter 34
02:02:33.513 : en:Chapter 35



Скачать Презумпция.невиновности.Presumed.Innocent.(Алан.Дж.Пакула).[1990.детектив.драма.криминал.BDRip-AVC].[Dub]+[AVO]+[Sub]+[Оригинал].torrent без регистрации
Золото ЗОЛОТАЯ РАЗДАЧА! СКАЧАННОЕ НЕ ЗАСЧИТЫВАЕТСЯ! Золото
Дата: Зарегистрирован   [ Тип: внутренний ] Как тут cкачать?
MAGNET ссылка
MAGNET ссылка


Скачать .torrent

14 KB

Статус: проверено DHT
Скачан: торрент - 8 раз, раздача полностью - 5 раз
Размер: 2,68 GB
Оценка:  - (Голосов: 0)
Поблагодарили: 0
Поделиться ссылкой на эту раздачу с друзьями:
В контактеFacebookОдноклассникиTwitterLivejournalМой МирLiveinternet
 

 
Показать сообщения:    


Вы не можете начинать темы
Вы не можете отвечать на сообщения
Вы не можете редактировать свои сообщения
Вы не можете удалять свои сообщения
Вы не можете голосовать в опросах
Вы не можете прикреплять файлы к сообщениям
Вы можете скачивать файлы