Loading...
Error

Скачать 20000 лье под водой / 20000 Leagues Under the Sea (Ричард Флайшер) [1954, Фантастика, драма, приключения, семейный, BDRip] [MVO] торрент без регистрации

 
Статистика раздачи
Размер:  1,46 GB   |    Скачан:  9 раз

Полного источника не было: 19 минут

 
Автор Сообщение

leon030982

[] 

«Walt Disney's Mighty, Magnificent, Memorable 20,000 Leagues Under the Sea!»

Информация о фильме
Название: 20000 лье под водой / 20000 Leagues Under the Sea
Оригинальное название: 20000 Leagues Under the Sea
Год выхода: 1954
Жанр: Фантастика, драма, приключения, семейный
Страна: США
Студия: Walt Disney Productions
Продолжительность: 02:07:01
Перевод: Профессиональный (многоголосый, закадровый)

Режиссер: Ричард Флайшер

В ролях: Кирк Дуглас, Джеймс Мэйсон, Пол Лукас, Петер Лорре, Роберт Дж. Уилки, Тед де Корсия, Карлтон Янг, Дж. М. Кэрриган, Перси Хелтон, Тед Купер

О фильме:
На календаре 1868 год и весь Сан-Франциско взбудоражен поступающими сообщениями о плавающем под водой огромном чудовище, которое может сожрать любое судно, если оно к нему приближается. Многие плавания отменены, и правительство вынуждено послать военный корабль исследовать и очистить море от «чудищ».

Корабль этот был потоплен неизвестным «существом», и только троим чудом удалось спастись: профессональному гарпунисту, профессору из Морского музея в Париже и его помощнику. Их вытаскивают из воды на эту чуду-юду, которое оказывается подводной лодкой Капитана Немо, ученого, изобретателя и радикального борца за мир. Он топит корабли с благородной целью покончить с войной на бескрайних водах мирового океана…



Файл
Качество: BDRip (исх.20000 Leagues Under the Sea 1954.1080p.BluRay.AVC.DD 5.1 )
Кодек: XviD
Видео: 720x288 (2,500:1), 23,976 fps, XviD ~1445 kbps avg, 0.291 bit/pixel
Звук: 48 kHz, AC3, 2 ch, ~192.00 kbps avg | русский | Профессиональный (многоголосый, закадровый)
Субтитры: Отсутствуют

Семпл

Сатурн, 2004 год
Номинации (1):
Лучшее DVD-издание классического фильма

Оскар, 1955 год
Победитель (2):
Лучшая работа художника (цветные фильмы)
Лучшие спецэффекты
Номинации (1):
Лучший монтаж
Общее
Полное имя : 20000.le.pod.vodoj.1954.XviD.BDRip_by stillet.avi
Формат : AVI
Формат/Информация : Audio Video Interleave
Размер файла : 1,46 Гбайт
Продолжительность : 2 ч. 7 м.
Общий поток : 1646 Кбит/сек
Режиссёр : stillet
Формат оригинала/Распространитель : Russian
Тема : 20000 Leagues Under the Sea
Библиотека кодирования : VirtualDub build 35491/release

Видео
Идентификатор : 0
Формат : MPEG-4 Visual
Профиль формата : Advanced Simple@L5
Параметр BVOP формата : 2
Параметр QPel формата : Нет
Параметр GMC формата : Без точки перехода
Параметр матрицы формата : Default (MPEG)
Идентификатор кодека : XVID
Идентификатор кодека/Подсказка : XviD
Продолжительность : 2 ч. 7 м.
Битрейт : 1445 Кбит/сек
Ширина : 720 пикселей
Высота : 288 пикселей
Соотношение сторон : 2,500
Частота кадров : 23,976 (24000/1001) кадра/сек
Цветовое пространство : YUV
Субдискретизация насыщенности : 4:2:0
Битовая глубина : 8 бит
Тип развёртки : Прогрессивная
Метод сжатия : С потерями
Бит/(Пиксели*Кадры) : 0.291
Размер потока : 1,28 Гбайт (88%)
Библиотека кодирования : XviD 73

Аудио
Идентификатор : 1
Формат : AC-3
Формат/Информация : Audio Coding 3
Расширение режима : CM (complete main)
Параметр Endianness формата : Big
Идентификатор кодека : 2000
Продолжительность : 2 ч. 6 м.
Вид битрейта : Постоянный
Битрейт : 192 Кбит/сек
Каналы : 2 канала
Расположение каналов : Front: L R
Частота : 48,0 КГц
Частота кадров : 31,250 кадров/сек (1536 spf)
Метод сжатия : С потерями
Размер потока : 174 Мбайт (12%)
Выравнивание : Соединение по промежуткам
Продолжительность промежутка : 42 мс. (1,00 видеокадр)
Время предзагрузки промежутка : 512 мс.



Скачать 20000.лье.под.водой.20000.Leagues.Under.the.Sea.(Ричард.Флайшер).[1954.Фантастика.драма.приключения.семейный.BDRip].[MVO].torrent без регистрации
Золото ЗОЛОТАЯ РАЗДАЧА! СКАЧАННОЕ НЕ ЗАСЧИТЫВАЕТСЯ! Золото
Дата: Зарегистрирован   [ Тип: внутренний ] Как тут cкачать?
MAGNET ссылка
MAGNET ссылка


Скачать .torrent

15 KB

Статус: проверено DHT
Скачан: торрент - 9 раз, раздача полностью - 4 раз
Размер: 1,46 GB
Оценка:  - (Голосов: 0)
Поблагодарили: 0
Поделиться ссылкой на эту раздачу с друзьями:
В контактеFacebookОдноклассникиTwitterLivejournalМой МирLiveinternet
 

 
Показать сообщения:    


Вы не можете начинать темы
Вы не можете отвечать на сообщения
Вы не можете редактировать свои сообщения
Вы не можете удалять свои сообщения
Вы не можете голосовать в опросах
Вы не можете прикреплять файлы к сообщениям
Вы можете скачивать файлы