Loading...
Error

Скачать Дети кукурузы 5: Поля страха / Children of the Corn V: Fields of Terror (Этан Уайли) [1998, ужасы, триллер, ..., DVDRip-AVC] [MVO]+[AVO]+[Sub]x2 торрент без регистрации

 
Статистика раздачи
Размер:  2,62 GB   |    Скачан:  5 раз
Сидов:  1  [  0 KB/s  ]  
 
Автор Сообщение

Marsianka

[] 

Название: Дети кукурузы 5: Поля страха
Оригинальное название: Children of the Corn V: Fields of Terror
Год выхода: 1998

Страна: США
Студия: Dimension Films, Blue Rider Pictures
Продолжительность: 01:22:58
Жанр: ужасы, триллер, ...

Режиссер: Этан Уайли
В ролях: Стэйси Галина, Алексис Аркетт, Ева Мендес, Грег Вон, Анджела Джонс, Ахмет Заппа, Фред Уильямсон, Дэйв Буццотта, Оливия Бернетт, Адам Вайли, ...

Перевод:
- Профессиональный (многоголосный, закадровый) R5 West Video
- Авторский (одноголосый, закадровый) Карцев Петр
- Субтитры

О фильме: Никто в компании не ожидал от этого путешествия никаких неприятностей. Даже случившаяся авария не показалась им началом. Но позже в ближайшем баре, куда студенты отправились за помощью, они услышали историю о таинственном человеке по имени Люк, о детях-рабах и загадочном божестве. Кто-то из них вспомнил, что уже слышал нечто похожее. И они решили, что должны выяснить тайну этого городка…



Кодек: x264
Качество: DVDRip-AVC
Видео: 764x576, 3500 kbps, 23,976 fps
Аудио #1: AC-3, 6 ch, 384 kbps (Rus) - MVO R5 (West Video)
Аудио #2: AC-3, 2 ch, 256 kbps (Rus) - AVO Карцев Петр
Аудио #3: AC-3, 6 ch, 384 kbps (Eng)
Субтитры: Русские, Английские
За исходник спасибо - PUNCHLINE79797

Сравниваем DVD и BD на предмет наполнения кадра :


x264 [info]: frame I:831 Avg QP:16.13 size: 69177
x264 [info]: frame P:25774 Avg QP:18.37 size: 32294
x264 [info]: frame B:92771 Avg QP:20.69 size: 13877
x264 [info]: consecutive B-frames: 1.6% 1.8% 9.4% 21.6% 20.5% 33.5% 9.2% 0.9% 0.5% 0.5% 0.2% 0.2% 0.2%

Общее
Уникальный идентификатор : 224760380189206918579721292913790053389 (0xA917464F94FF90AEA18F178B20626C0D)
Полное имя : Дети кукурузы 5 Поля страха (Children of the Corn V Fields of Terror) 1998 DVDRip.mkv
Формат : Matroska
Версия формата : Version 2
Размер файла : 2,62 Гбайт
Продолжительность : 1 ч. 22 м.
Общий поток : 4525 Кбит/сек
Дата кодирования : UTC 2016-06-10 13:26:46
Программа кодирования : mkvmerge v4.0.0 ('The Stars were mine') сборка от Jun 6 2010 16:18:42
Библиотека кодирования : libebml v1.0.0 + libmatroska v1.0.0

Видео
Идентификатор : 1
Формат : AVC
Формат/Информация : Advanced Video Codec
Профиль формата : High@L4.1
Параметр CABAC формата : Да
Параметр ReFrames формата : 12 кадров
Идентификатор кодека : V_MPEG4/ISO/AVC
Продолжительность : 1 ч. 22 м.
Битрейт : 3500 Кбит/сек
Ширина : 764 пикселя
Высота : 576 пикселей
Соотношение сторон : 4:3
Режим частоты кадров : Постоянный
Частота кадров : 23,976 (24000/1001) кадра/сек
Цветовое пространство : YUV
Субдискретизация насыщенности : 4:2:0
Битовая глубина : 8 бит
Тип развёртки : Прогрессивная
Бит/(Пиксели*Кадры) : 0.332
Размер потока : 1,98 Гбайт (75%)
Библиотека кодирования : x264 core 146 r2538 121396c
Настройки программы : cabac=1 / ref=12 / deblock=1:-3:-3 / analyse=0x3:0x133 / me=umh / subme=11 / psy=1 / psy_rd=1.00:0.00 / mixed_ref=1 / me_range=32 / chroma_me=1 / trellis=2 / 8x8dct=1 / cqm=0 / deadzone=21,11 / fast_pskip=0 / chroma_qp_offset=-2 / threads=12 / lookahead_threads=2 / sliced_threads=0 / nr=0 / decimate=0 / interlaced=0 / bluray_compat=0 / constrained_intra=0 / bframes=12 / b_pyramid=2 / b_adapt=2 / b_bias=0 / direct=3 / weightb=1 / open_gop=0 / weightp=2 / keyint=240 / keyint_min=23 / scenecut=40 / intra_refresh=0 / rc=2pass / mbtree=0 / bitrate=3500 / ratetol=1.0 / qcomp=0.60 / qpmin=0 / qpmax=69 / qpstep=4 / cplxblur=20.0 / qblur=0.5 / ip_ratio=1.40 / pb_ratio=1.30 / aq=1:0.80
Язык : English
Default : Нет
Forced : Нет

Аудио #1
Идентификатор : 2
Формат : AC-3
Формат/Информация : Audio Coding 3
Расширение режима : CM (complete main)
Параметр Endianness формата : Big
Идентификатор кодека : A_AC3
Продолжительность : 1 ч. 22 м.
Вид битрейта : Постоянный
Битрейт : 384 Кбит/сек
Каналы : 6 каналов
Расположение каналов : Front: L C R, Side: L R, LFE
Частота : 48,0 КГц
Частота кадров : 31,250 кадров/сек (1536 spf)
Метод сжатия : С потерями
Размер потока : 228 Мбайт (8%)
Заголовок : MVO R5 (West Video)
Язык : Russian
Default : Нет
Forced : Нет

Аудио #2
Идентификатор : 3
Формат : AC-3
Формат/Информация : Audio Coding 3
Расширение режима : CM (complete main)
Параметр Endianness формата : Big
Идентификатор кодека : A_AC3
Продолжительность : 1 ч. 22 м.
Вид битрейта : Постоянный
Битрейт : 256 Кбит/сек
Каналы : 2 канала
Расположение каналов : Front: L R
Частота : 48,0 КГц
Частота кадров : 31,250 кадров/сек (1536 spf)
Метод сжатия : С потерями
Размер потока : 152 Мбайт (6%)
Заголовок : AVO Карцев Петр
Язык : Russian
Default : Нет
Forced : Нет

Аудио #3
Идентификатор : 4
Формат : AC-3
Формат/Информация : Audio Coding 3
Расширение режима : CM (complete main)
Параметр Endianness формата : Big
Идентификатор кодека : A_AC3
Продолжительность : 1 ч. 22 м.
Вид битрейта : Постоянный
Битрейт : 384 Кбит/сек
Каналы : 6 каналов
Расположение каналов : Front: L C R, Side: L R, LFE
Частота : 48,0 КГц
Частота кадров : 31,250 кадров/сек (1536 spf)
Метод сжатия : С потерями
Размер потока : 228 Мбайт (8%)
Язык : English
Default : Нет
Forced : Нет

Текст #1
Идентификатор : 5
Формат : UTF-8
Идентификатор кодека : S_TEXT/UTF8
Идентификатор кодека/Информация : UTF-8 Plain Text
Язык : Russian
Default : Нет
Forced : Нет

Текст #2
Идентификатор : 6
Формат : UTF-8
Идентификатор кодека : S_TEXT/UTF8
Идентификатор кодека/Информация : UTF-8 Plain Text
Язык : English
Default : Нет
Forced : Нет



Скачать Дети.кукурузы.5.Поля.страха.Children.of.the.Corn.V.Fields.of.Terror.(Этан.Уайли).[1998.ужасы.триллер.DVDRip-AVC].[MVO]+[AVO]+[Sub]x2.torrent без регистрации
Золото ЗОЛОТАЯ РАЗДАЧА! СКАЧАННОЕ НЕ ЗАСЧИТЫВАЕТСЯ! Золото
Дата: Зарегистрирован   [ Тип: внутренний ] Как тут cкачать?
MAGNET ссылка
MAGNET ссылка


Скачать .torrent

14 KB

Статус: проверено DHT
Скачан: торрент - 5 раз, раздача полностью - 5 раз
Размер: 2,62 GB
Оценка:  - (Голосов: 0)
Поблагодарили: 0
Поделиться ссылкой на эту раздачу с друзьями:
В контактеFacebookОдноклассникиTwitterLivejournalМой МирLiveinternet
 

 
Показать сообщения:    


Вы не можете начинать темы
Вы не можете отвечать на сообщения
Вы не можете редактировать свои сообщения
Вы не можете удалять свои сообщения
Вы не можете голосовать в опросах
Вы не можете прикреплять файлы к сообщениям
Вы можете скачивать файлы