Loading...
Error

Скачать Убийство первой степени / Murder in the First (03x01-04 из 10) (Джесси Бокко и др.) [2016, драма, криминал, детектив, HDTVRip] [DVO (HamsterStudio)] торрент без регистрации

 
Статистика раздачи
Размер:  1,76 GB   |    Скачан:  18 раз
Сидов:  1  [  0 KB/s  ]  
 
Автор Сообщение

МихаНЕзатор

[] 

Информация о фильме
Название: Убийство первой степени
Оригинальное название: Murder in the First
Год выхода: 2016
Жанр: драма, криминал, детектив
Режиссер: Джесси Бокко, Эллисон Андерс, Реджинальд Хадлин, Бен Болт, Майкл Мэйерс

В ролях: Йен Энтони Дэйл, Карри Грэм, Кэтлин Робертсон, Тэй Диггз, Мими Кирклэнд, Джейми МакШейн, Марисса Армихо, Брианна Дэвис, Камилль Бальзамо, Питер Онорати

О фильме: Инспекторы убойного отдела Терри Инглиш и Хилди Маллиган попадают в запутанный мир спорта и знаменитостей, после убийства профессионального футболиста. Их расследование становится все более сложным, когда инспекторы сталкиваются с личными трудностями, что усугубляет ведение дела.



Релиз от: HamsterStudio

Страна: США
Студия: Turner Original Productions, ShutterPunch VFX, TNT Originals
Продолжительность: ~00:42:00 серия
Перевод: Любительский двухголосый [HamsterStudio]

Файл
Кодек: XviD
Качество: HDTVRip
Видео: 720x400, 1 337 Kbps, 23.976 fps
Звук: MP3, 128 Kbps (2 ch)

АНОНСЫ ПОПУЛЯРНЫХ РАЗДАЧ


Торрент обновлён, добавлена 4-я серия!
General
Complete name : /home/roma/Відео/Убийство первой степени (Murder in the First)/Murder.in.the.First.s03e01.HDTVRip.HamsterStudio.avi
Format : AVI
Format/Info : Audio Video Interleave
File size : 451 MiB
Duration : 42mn 46s
Overall bit rate : 1 474 Kbps
Writing application : VirtualDubModRus 1.5.10.2 (build 2540/release)
Writing library : VirtualDubMod build 2540/release

Video
ID : 0
Format : MPEG-4 Visual
Format profile : Advanced Simple@L5
Format settings, BVOP : 1
Format settings, QPel : No
Format settings, GMC : No warppoints
Format settings, Matrix : Default (H.263)
Codec ID : XVID
Codec ID/Hint : XviD
Duration : 42mn 46s
Bit rate : 1 337 Kbps
Width : 720 pixels
Height : 400 pixels
Display aspect ratio : 16:9
Frame rate : 23.976 fps
Color space : YUV
Chroma subsampling : 4:2:0
Bit depth : 8 bits
Scan type : Progressive
Compression mode : Lossy
Bits/(Pixel*Frame) : 0.194
Stream size : 409 MiB (91%)
Writing library : XviD 1.2.1 (UTC 2008-12-04)

Audio
ID : 1
Format : MPEG Audio
Format version : Version 1
Format profile : Layer 3
Mode : Joint stereo
Mode extension : MS Stereo
Codec ID : 55
Codec ID/Hint : MP3
Duration : 42mn 46s
Bit rate mode : Constant
Bit rate : 128 Kbps
Channel(s) : 2 channels
Sampling rate : 48.0 KHz
Compression mode : Lossy
Stream size : 39.2 MiB (9%)
Alignment : Aligned on interleaves
Interleave, duration : 42 ms (1.00 video frame)
Interleave, preload duration : 504 ms
Когда раздача ведётся путём добавления новых серий, при каждом добавлении создётся новый торрент. Чтобы начать докачку новой серии, пользователям необходимо сделать следующее:
(1) остановить скачивание,
(2) удалить старый торрент у себя из клиента (старые серии удалять не надо),
(3) скачать новый торрент и запустить его у себя в клиенте вместо старого, при этом указать клиенту путь в старую папку, куда и должно происходить скачивание новых серий.
Ваш клиент при этом должен произвести хеширование (проверку) старой папки (если не производит сам - помогите ему сделать это), и будет докачивать только те серии, которых у вас ещё нет. Старые серии при этом не удаляются, а продолжают раздаваться!
Eсли вы уже удалили старые серии, то предотвратить повторную закачку старых серий можно, отжав галочку в соответсвующих местах при запуске нового торрента. По возможности, желательно не удалять старые серии как можно дольше, чтобы релизёр не столько продолжал раздавать старые серии, а смог сконцентрироваться на новых.



Скачать Убийство.первой.степени.Murder.in.the.First.(03x01-04.из.10).(Джесси.Бокко.и.др.).[2016.драма.криминал.детектив.HDTVRip].[DVO.(HamsterStudio)].torrent без регистрации
Золото ЗОЛОТАЯ РАЗДАЧА! СКАЧАННОЕ НЕ ЗАСЧИТЫВАЕТСЯ! Золото
Дата: Зарегистрирован   [ Тип: внутренний ] Как тут cкачать?
MAGNET ссылка
MAGNET ссылка


Скачать .torrent

37 KB

Статус: проверено DHT
Скачан: торрент - 18 раз, раздача полностью - 28 раз
Размер: 1,76 GB
Оценка:  - (Голосов: 0)
Поблагодарили: 3
Поделиться ссылкой на эту раздачу с друзьями:
В контактеFacebookОдноклассникиTwitterLivejournalМой МирLiveinternet
 

 
Показать сообщения:    


Вы не можете начинать темы
Вы не можете отвечать на сообщения
Вы не можете редактировать свои сообщения
Вы не можете удалять свои сообщения
Вы не можете голосовать в опросах
Вы не можете прикреплять файлы к сообщениям
Вы можете скачивать файлы