Loading...
Error

Скачать Особые приметы: красавчик / Segni particolari: bellissimo (Кастеллано и Пиполо) [1983, комедия, DVDRip-AVC] [AVO (Мудров)]+[Оригинал] торрент без регистрации

 
Статистика раздачи
Размер:  1,39 GB   |    Скачан:  10 раз
Сидов:  1  [  0 KB/s  ]  
 
Автор Сообщение

Marsianka

[] 

Информация о фильме
Название: Особые приметы. Неотразим (Красавчик)
Оригинальное название: Segni particolari. Bellissimo.
Год выхода: 1983
Жанр: комедия
Режиссер: Кастеллано и Пиполо
В ролях: Адриано Челентано, Федерика Моро, Джанни Бонагура, Симона Мариани, Анна Канакис, Джакомо Россели, Антонелиа Робустелли, Альфред Томас

Писатель Матиа - неотразимый красавец, на которого вешаются все женщины. Он платит своей соседке, прекрасной и юной Микаэле, чтобы та под видом его дочери забраковывала всех, кто хочет затащить его под венец...


Страна: Италия
Продолжительность: 01:27:06
Перевод: Aвторский одноголосый (Мудров),
Оригинальная дорожка (Итальянский).

Файл
Кодек: x264
Качество: DVDRip 576p.
Видео: AVC : [email protected]/* */, битрейт : 1900 Кбит/сек, Ш: 720 пикс.В: 576 пикс, соотношение сторон : 16:9, частота кадров: 25,000 кадров/сек.
Звук: 1-ая дорожка - AC3, 192 Кбит/сек, 2 канала, 48,0 КГц. - AVO, 2-ая дорожка - AC3, 192 Кбит/сек, 2 канала, 48,0 КГц. - Оригинальная
Общее
Уникальный идентификатор : 185523384080665174528020690213913374850 (0x8B92810B49E33DFE9040A8581AA23082)
Полное имя : D:Торрент файлыОсобые приметы. Неотразим (Красавчик).1983..mkv
Формат : Matroska
Версия формата : Version 2
Размер файла : 1,39 Гбайт
Продолжительность : 1 ч. 27 м.
Общий поток : 2286 Кбит/сек
Название фильма : Segni particolari: bellissimo.1983.by Dafty.
Дата кодирования : UTC 2016-06-27 19:20:25
Программа кодирования : mkvmerge v4.0.0 ('The Stars were mine') сборка от Jun 6 2010 16:18:42
Библиотека кодирования : libebml v1.0.0 + libmatroska v1.0.0

Видео
Идентификатор : 1
Формат : AVC
Формат/Информация : Advanced Video Codec
Профиль формата : High@L3.1
Параметр CABAC формата : Да
Параметр ReFrames формата : 10 кадров
Идентификатор кодека : V_MPEG4/ISO/AVC
Продолжительность : 1 ч. 27 м.
Битрейт : 1900 Кбит/сек
Ширина : 720 пикселей
Высота : 576 пикселей
Соотношение сторон : 16:9
Режим частоты кадров : Постоянный
Частота кадров : 25,000 кадров/сек
Стандарт вещания : PAL
Цветовое пространство : YUV
Субдискретизация насыщенности : 4:2:0
Битовая глубина : 8 бит
Тип развёртки : Прогрессивная
Бит/(Пиксели*Кадры) : 0.183
Размер потока : 1,13 Гбайт (81%)
Заголовок : Segni particolari: bellissimo.1983.by Dafty.
Библиотека кодирования : x264 core 148 r2638M 7599210
Настройки программы : cabac=1 / ref=10 / deblock=1:-1:-1 / analyse=0x3:0x133 / me=tesa / subme=8 / psy=1 / psy_rd=1.05:0.15 / mixed_ref=1 / me_range=24 / chroma_me=1 / trellis=2 / 8x8dct=1 / cqm=0 / deadzone=21,11 / fast_pskip=0 / chroma_qp_offset=-3 / threads=7 / lookahead_threads=3 / sliced_threads=0 / nr=0 / decimate=1 / interlaced=0 / bluray_compat=0 / constrained_intra=0 / bframes=10 / b_pyramid=2 / b_adapt=2 / b_bias=0 / direct=3 / weightb=0 / open_gop=0 / weightp=2 / keyint=250 / keyint_min=25 / scenecut=40 / intra_refresh=0 / rc=2pass / mbtree=0 / bitrate=1900 / ratetol=1.0 / qcomp=0.70 / qpmin=3 / qpmax=69 / qpstep=4 / cplxblur=20.0 / qblur=0.5 / ip_ratio=1.40 / pb_ratio=1.30 / aq=2:1.00
Язык : Italian
Default : Нет
Forced : Нет

Аудио #1
Идентификатор : 2
Формат : AC-3
Формат/Информация : Audio Coding 3
Расширение режима : CM (complete main)
Параметр Endianness формата : Big
Идентификатор кодека : A_AC3
Продолжительность : 1 ч. 27 м.
Вид битрейта : Постоянный
Битрейт : 192 Кбит/сек
Каналы : 2 канала
Расположение каналов : Front: L R
Частота : 48,0 КГц
Битовая глубина : 16 бит
Метод сжатия : С потерями
Размер потока : 120 Мбайт (8%)
Заголовок : AVO (Мудров)
Язык : Russian
Default : Нет
Forced : Нет

Аудио #2
Идентификатор : 3
Формат : AC-3
Формат/Информация : Audio Coding 3
Расширение режима : CM (complete main)
Параметр Endianness формата : Big
Идентификатор кодека : A_AC3
Продолжительность : 1 ч. 27 м.
Вид битрейта : Постоянный
Битрейт : 192 Кбит/сек
Каналы : 2 канала
Расположение каналов : Front: L R
Частота : 48,0 КГц
Битовая глубина : 16 бит
Метод сжатия : С потерями
Размер потока : 120 Мбайт (8%)
Заголовок : Italian
Язык : Italian
Default : Нет
Forced : Нет

Меню
00:00:00.000 : :Глава 1
00:06:33.360 : :Глава 2
00:13:35.490 : :Глава 3
00:22:14.490 : :Глава 4
00:30:36.510 : :Глава 5
00:37:16.680 : :Глава 6
00:42:43.890 : :Глава 7
00:48:05.130 : :Глава 8
00:53:01.380 : :Глава 9
00:59:32.460 : :Глава 10
01:07:11.790 : :Глава 11
01:17:05.850 : :Глава 12



Скачать Особые.приметы.красавчик.Segni.particolari.bellissimo.(Кастеллано.и.Пиполо).[1983.комедия.DVDRip-AVC].[AVO.(Мудров)]+[Оригинал].torrent без регистрации
Золото ЗОЛОТАЯ РАЗДАЧА! СКАЧАННОЕ НЕ ЗАСЧИТЫВАЕТСЯ! Золото
Дата: Зарегистрирован   [ Тип: внутренний ] Как тут cкачать?
MAGNET ссылка
MAGNET ссылка


Скачать .torrent

15 KB

Статус: проверено DHT
Скачан: торрент - 10 раз, раздача полностью - 7 раз
Размер: 1,39 GB
Оценка:  - (Голосов: 0)
Поблагодарили: 0
Поделиться ссылкой на эту раздачу с друзьями:
В контактеFacebookОдноклассникиTwitterLivejournalМой МирLiveinternet
 

 
Показать сообщения:    


Вы не можете начинать темы
Вы не можете отвечать на сообщения
Вы не можете редактировать свои сообщения
Вы не можете удалять свои сообщения
Вы не можете голосовать в опросах
Вы не можете прикреплять файлы к сообщениям
Вы можете скачивать файлы