Loading...
Error

Скачать Увлечение / The Crush (Алан Шапиро) [1993, триллер, драма, BDRip-AVC] [MVO]+[DVO]+[AVO]x2+[Sub] торрент без регистрации

 
Статистика раздачи
Размер:  2,17 GB   |    Скачан:  9 раз
Сидов:  1  [  0 KB/s  ]  
 
Автор Сообщение

Marsianka

[] 

Информация о фильме
Название: Увлечение (Роковое увлечение)
Оригинальное название: The Crush
Год выхода: 1993
Жанр: триллер, драма
Режиссер: Алан Шапиро
В ролях: Кэри Элвис, Алисия Сильверстоун, Дженнифер Рубин, Кертвуд Смит, Эмбер Бенсон, Гвинит Уолш

О фильме:
Жизнь Ника Элиота окончательно наладилась. Он получил отличную работу в популярном журнале, завязал романтические отношения с чудесной девушкой Эми и снял уютный домик у богатой супружеской четы в престижном квартале. Когда же Ник познакомился с 14-летней дочерью хозяев Эдриан, она буквально очаровала молодого журналиста своей красотой, умом и формами. А Эдриан просто обезумела от страсти к Нику. Но, не встретив взаимности, благовоспитанный подросток быстро превратился в одержимую ревностью мстительницу. Потому что Эдриан привыкла всегда получать все, что хочет. И если любимый не достанется ей, то не достанется никому…



Страна: США
Студия: Morgan Creek Productions
Продолжительность: 01:29:01
Перевод: Профессиональный многоголосый, профессиональный двухголосый, авторский

Файл
Кодек: x264
Качество: BDRip-AVC
Видео: MPEG-4 AVC, 2283 Кбит/с, 1024х576, 23.976 кадр/с
Аудио #1: AC3, 2 ch, 192 Кбит/с | Профессиональный многоголосый (Премьер Видео)
Аудио #2: AC3, 2 ch, 192 Кбит/с | Профессиональный двухголосый (НТВ+)
Аудио #3: AC3, 2 ch, 192 Кбит/с | Авторский (Вартан Дохалов)
Аудио #4: AC3, 2 ch, 192 Кбит/с | Авторский (Юрий Живов)
Аудио #5: AC3, 6 ch, 448 Кбит/с | Английский
Субтитры: Английские [SDH]
Общее
Уникальный идентификатор : 212283876502562641980827371583109116956 (0x9FB4632FB4C90B5D9909C23CD7E8B41C)
Полное имя : The Crush.1993.BDRip-AVC.mkv
Формат : Matroska
Версия формата : Version 4 / Version 2
Размер файла : 2,17 Гбайт
Продолжительность : 1 ч. 29 м.
Общий поток : 3497 Кбит/сек
Название фильма : The Crush
Режиссёр : Alan Shapiro
Дата кодирования : UTC 2016-06-27 14:30:52
Программа кодирования : mkvmerge v7.7.0 ('Six Voices') 32bit built on Feb 28 2015 23:23:00
Библиотека кодирования : libebml v1.3.1 + libmatroska v1.4.2
Attachements : cover.jpg
Release : Koenig
DURATION : 01:23:29.463000000
NUMBER_OF_FRAMES : 1250
NUMBER_OF_BYTES : 30633
_STATISTICS_WRITING_APP : mkvmerge v7.7.0 ('Six Voices') 32bit built on Feb 28 2015 23:23:00
_STATISTICS_WRITING_DATE_UTC : 2016-06-27 14:30:52
_STATISTICS_TAGS : BPS DURATION NUMBER_OF_FRAMES NUMBER_OF_BYTES

Видео
Идентификатор : 1
Формат : AVC
Формат/Информация : Advanced Video Codec
Профиль формата : High@L4.1
Параметр CABAC формата : Да
Параметр ReFrames формата : 12 кадров
Идентификатор кодека : V_MPEG4/ISO/AVC
Продолжительность : 1 ч. 29 м.
Битрейт : 2283 Кбит/сек
Ширина : 1024 пикселя
Высота : 576 пикселей
Соотношение сторон : 16:9
Режим частоты кадров : Постоянный
Частота кадров : 23,976 кадра/сек
Цветовое пространство : YUV
Субдискретизация насыщенности : 4:2:0
Битовая глубина : 8 бит
Тип развёртки : Прогрессивная
Бит/(Пиксели*Кадры) : 0.161
Размер потока : 1,38 Гбайт (63%)
Библиотека кодирования : x264 core 146 r2538 121396c
Настройки программы : cabac=1 / ref=12 / deblock=1:-3:-3 / analyse=0x3:0x133 / me=umh / subme=10 / psy=1 / psy_rd=1.04:0.00 / mixed_ref=1 / me_range=32 / chroma_me=1 / trellis=2 / 8x8dct=1 / cqm=0 / deadzone=21,11 / fast_pskip=0 / chroma_qp_offset=-2 / threads=3 / lookahead_threads=1 / sliced_threads=0 / nr=0 / decimate=1 / interlaced=0 / bluray_compat=0 / constrained_intra=0 / bframes=10 / b_pyramid=2 / b_adapt=2 / b_bias=0 / direct=3 / weightb=1 / open_gop=0 / weightp=2 / keyint=240 / keyint_min=23 / scenecut=40 / intra_refresh=0 / rc_lookahead=40 / rc=2pass / mbtree=1 / bitrate=2283 / ratetol=1.0 / qcomp=0.60 / qpmin=10 / qpmax=51 / qpstep=4 / cplxblur=20.0 / qblur=0.5 / vbv_maxrate=50000 / vbv_bufsize=62500 / nal_hrd=none / filler=0 / ip_ratio=1.40 / aq=1:1.00
Default : Да
Forced : Нет

Аудио #1
Идентификатор : 2
Формат : AC-3
Формат/Информация : Audio Coding 3
Расширение режима : CM (complete main)
Параметр Endianness формата : Big
Идентификатор кодека : A_AC3
Продолжительность : 1 ч. 29 м.
Вид битрейта : Постоянный
Битрейт : 192 Кбит/сек
Каналы : 2 канала
Расположение каналов : Front: L R
Частота : 48,0 КГц
Метод сжатия : С потерями
Размер потока : 122 Мбайт (5%)
Заголовок : MVO - Премьер Видео
Язык : Russian
Default : Да
Forced : Нет

Аудио #2
Идентификатор : 3
Формат : AC-3
Формат/Информация : Audio Coding 3
Расширение режима : CM (complete main)
Параметр Endianness формата : Big
Идентификатор кодека : A_AC3
Продолжительность : 1 ч. 29 м.
Вид битрейта : Постоянный
Битрейт : 192 Кбит/сек
Каналы : 2 канала
Расположение каналов : Front: L R
Частота : 48,0 КГц
Метод сжатия : С потерями
Размер потока : 122 Мбайт (5%)
Заголовок : DVO - НТВ+
Язык : Russian
Default : Нет
Forced : Нет

Аудио #3
Идентификатор : 4
Формат : AC-3
Формат/Информация : Audio Coding 3
Расширение режима : CM (complete main)
Параметр Endianness формата : Big
Идентификатор кодека : A_AC3
Продолжительность : 1 ч. 29 м.
Вид битрейта : Постоянный
Битрейт : 192 Кбит/сек
Каналы : 2 канала
Расположение каналов : Front: L R
Частота : 48,0 КГц
Метод сжатия : С потерями
Размер потока : 122 Мбайт (5%)
Заголовок : AVO - Дохалов
Язык : Russian
Default : Нет
Forced : Нет

Аудио #4
Идентификатор : 5
Формат : AC-3
Формат/Информация : Audio Coding 3
Расширение режима : CM (complete main)
Параметр Endianness формата : Big
Идентификатор кодека : A_AC3
Продолжительность : 1 ч. 29 м.
Вид битрейта : Постоянный
Битрейт : 192 Кбит/сек
Каналы : 2 канала
Расположение каналов : Front: L R
Частота : 48,0 КГц
Метод сжатия : С потерями
Размер потока : 122 Мбайт (5%)
Заголовок : AVO - Живов
Язык : Russian
Default : Нет
Forced : Нет

Аудио #5
Идентификатор : 6
Формат : AC-3
Формат/Информация : Audio Coding 3
Расширение режима : CM (complete main)
Параметр Endianness формата : Big
Идентификатор кодека : A_AC3
Продолжительность : 1 ч. 29 м.
Вид битрейта : Постоянный
Битрейт : 448 Кбит/сек
Каналы : 6 каналов
Расположение каналов : Front: L C R, Side: L R, LFE
Частота : 48,0 КГц
Метод сжатия : С потерями
Размер потока : 285 Мбайт (13%)
Язык : English
Default : Нет
Forced : Нет

Текст
Идентификатор : 7
Формат : UTF-8
Идентификатор кодека : S_TEXT/UTF8
Идентификатор кодека/Информация : UTF-8 Plain Text
Язык : English
Default : Да
Forced : Нет

Меню
00:00:00.000 : en:
00:10:05.313 : en:
00:24:20.583 : en:
00:38:19.380 : en:
00:48:10.344 : en:
01:00:47.685 : en:
01:10:18.589 : en:
01:25:07.100 : en:
01:28:59.332 : en:



Скачать Увлечение.The.Crush.(Алан.Шапиро).[1993.триллер.драма.BDRip-AVC].[MVO]+[DVO]+[AVO]x2+[Sub].torrent без регистрации
Золото ЗОЛОТАЯ РАЗДАЧА! СКАЧАННОЕ НЕ ЗАСЧИТЫВАЕТСЯ! Золото
Дата: Зарегистрирован   [ Тип: внутренний ] Как тут cкачать?
MAGNET ссылка
MAGNET ссылка


Скачать .torrent

12 KB

Статус: проверено DHT
Скачан: торрент - 9 раз, раздача полностью - 4 раз
Размер: 2,17 GB
Оценка:  - (Голосов: 0)
Поблагодарили: 1
Поделиться ссылкой на эту раздачу с друзьями:
В контактеFacebookОдноклассникиTwitterLivejournalМой МирLiveinternet
 

 
Показать сообщения:    


Вы не можете начинать темы
Вы не можете отвечать на сообщения
Вы не можете редактировать свои сообщения
Вы не можете удалять свои сообщения
Вы не можете голосовать в опросах
Вы не можете прикреплять файлы к сообщениям
Вы можете скачивать файлы