Loading...
Error

Скачать Только не без моей дочери / Not Without My Daughter (Брайан Гилберт) [1991, триллер, драма, HDTVRip] [DVO] торрент без регистрации

 
Статистика раздачи
Размер:  1,46 GB   |    Скачан:  4 раза

Полного источника не было: 29 минут

 
Автор Сообщение

Marsianka

[] 

Только не без моей дочери / Not Without My Daughter

Страна: США
Производство: Ufland, Pathé Entertainment
Год выпуска: 1991
Жанр: триллер, драма
Продолжительность: 01:50:58

Режиссер: Брайан Гилберт
Авторы сценария: Дэвид В. Ринтелс, Бетти Махмуди, Уильям Хофнер

В ролях: Салли Филд, Альфред Молина, Шила Розенталь, Рошан Сет, Сара Бэдел, Мони Рей, Жорж Коррафас, Мэри Нелл Сантакрок, Эд Грейди, Марк Гоуэн

Описание: Героиня фильма — американка Бетти Махмуди — замужем за американским врачом-анестезиологом иранского происхождения доктором Махмуди. У них есть четырехлетняя дочь Матоб. У Муди начинаются проблемы на работе, и он решает съездить в Иран на две недели навестить родственников. Перед отъездом он клянется на священном Коране, что никогда не запретит жене с дочерью уехать обратно, как только они захотят...



Перевод: Профессиональный (двухголосый, закадровый) | НТВ+
Субтитры: нет
Качество: HDTVRip
Формат: AVI
Видео кодек: XviD
Аудио кодек: АС3
Видео: 720x384 (1.85:1), 25.000 fps, XviD ~1 680 kbps
Аудио: 48.0 kHz, AC3 Dolby Digital, 2/0 (L,R) ch, ~192 kbps

Дата премьеры (мир): 11 января 1991
General
Только с дочерью - Not Without My Daughter [by Edich2].avi
Format : AVI
Format/Info : Audio Video Interleave
File size : 1.46 GiB
Duration : 1h 50mn
Overall bit rate : 1 881 Kbps
Movie name : Только с дочерью - Not Without My Daughter [by Edich2]
Director : Rip by Edich2
Writing application : VirtualDubMod 1.5.10.3 | (build 2550/release)

Video
ID : 0
Format : MPEG-4 Visual
Format profile : Advanced Simple@L5
Format settings, BVOP : 2
Format settings, QPel : No
Format settings, GMC : No warppoints
Format settings, Matrix : Custom
Muxing mode : Packed bitstream
Codec ID : XVID
Codec ID/Hint : XviD
Duration : 1h 50mn
Bit rate : 1 680 Kbps
Width : 720 pixels
Height : 384 pixels
Display aspect ratio : 1.85:1
Frame rate : 25.000 fps
Color space : YUV
Chroma subsampling : 4:2:0
Bit depth : 8 bits
Scan type : Progressive
Compression mode : Lossy
Bits/(Pixel*Frame) : 0.243
Stream size : 1.30 GiB (89%)
Writing library : XviD 1.2.1 (UTC 2008-12-04)

Audio
ID : 1
Format : AC-3
Format/Info : Audio Coding 3
Mode extension : CM (complete main)
Format settings, Endianness : Big
Codec ID : 2000
Duration : 1h 50mn
Bit rate mode : Constant
Bit rate : 192 Kbps
Channel count : 2 channels
Channel positions : Front: L R
Sampling rate : 48.0 KHz
Bit depth : 16 bits
Compression mode : Lossy
Stream size : 152 MiB (10%)
Alignment : Split accross interleaves
Interleave, duration : 40 ms (1.00 video frame)
Interleave, preload duration : 500 ms



Скачать Только.не.без.моей.дочери.Not.Without.My.Daughter.(Брайан.Гилберт).[1991.триллер.драма.HDTVRip].[DVO].torrent без регистрации
Золото ЗОЛОТАЯ РАЗДАЧА! СКАЧАННОЕ НЕ ЗАСЧИТЫВАЕТСЯ! Золото
Дата: Зарегистрирован   [ Тип: внутренний ] Как тут cкачать?
MAGNET ссылка
MAGNET ссылка


Скачать .torrent

15 KB

Статус: проверено DHT
Скачан: торрент - 4 раз, раздача полностью - 0 раз
Размер: 1,46 GB
Оценка:  - (Голосов: 0)
Поблагодарили: 0
Поделиться ссылкой на эту раздачу с друзьями:
В контактеFacebookОдноклассникиTwitterLivejournalМой МирLiveinternet
 

 
Показать сообщения:    


Вы не можете начинать темы
Вы не можете отвечать на сообщения
Вы не можете редактировать свои сообщения
Вы не можете удалять свои сообщения
Вы не можете голосовать в опросах
Вы не можете прикреплять файлы к сообщениям
Вы можете скачивать файлы