Loading...
Error

Скачать Скорпион / Scorpio (Майкл Уиннер) [1973, боевик, триллер, драма, BDRip] [MVO] торрент без регистрации

 
Статистика раздачи
Размер:  1,45 GB   |    Скачан:  14 раз

Полного источника не было: 27 минут

 
Автор Сообщение

Marsianka

[] 

Информация о фильме
Название: Скорпион
Оригинальное название: Scorpio
Год выхода: 1973
Жанр: боевик, триллер, драма
Режиссер: Майкл Уиннер
В ролях: Ален Делон, Бёрт Ланкастер, Пол Скофилд, Джон Коликос, Гэйл Ханникат, Дж.Д. Кэннон, Джоэнн Линвилл, Мел Стюарт, Владек Шейбал, Мэри Мод

О фильме:
Американский шпион Джеральд Кросс для выполнения грязной работы прибегает к помощи молодого и напористого француза Жана Лорье, считая его своим учеником и другом. Наступает момент, когда Кросс решает выйти из «Управления» и завязать. Боссы не желают отпустить его, и он вынужден бежать из страны. Но он не предусмотрел одного: чтобы найти и убрать его, руководители «Управления» сами обращаются к Жану, ведь он лучше всех знает своего учителя, и лишь он один в состоянии разыскать его. В случае успеха Жан займет место Кросса. Но события принимают неожиданный оборот…



Страна: США
Студия: The Mirisch Corporation, Scimitar Productions
Продолжительность: 01:54:34
Перевод: Профессиональный многоголосый

Файл
Качество: BDRip
Видео: XviD, 1612 Кбит/с, 720x392, 23.976 кадр/с
Звук: AC3, 1 ch, 192 Кбит/с
Общее
Полное имя : Scorpio.1973.BDRip.avi
Формат : AVI
Формат/Информация : Audio Video Interleave
Размер файла : 1,45 Гбайт
Продолжительность : 1 ч. 54 м.
Общий поток : 1813 Кбит/сек
Программа кодирования : VirtualDubMod 1.5.10.2 (build 2540/release)
Библиотека кодирования : VirtualDubMod build 2540/release

Видео
Идентификатор : 0
Формат : MPEG-4 Visual
Профиль формата : Advanced Simple@L5
Параметр BVOP формата : 2
Параметр QPel формата : Да
Параметр GMC формата : Без точки перехода
Параметр матрицы формата : Default (H.263)
Идентификатор кодека : XVID
Идентификатор кодека/Подсказка : XviD
Продолжительность : 1 ч. 54 м.
Битрейт : 1612 Кбит/сек
Ширина : 720 пикселей
Высота : 392 пикселя
Соотношение сторон : 1,85:1
Частота кадров : 23,976 кадра/сек
Цветовое пространство : YUV
Субдискретизация насыщенности : 4:2:0
Битовая глубина : 8 бит
Тип развёртки : Прогрессивная
Метод сжатия : С потерями
Бит/(Пиксели*Кадры) : 0.238
Размер потока : 1,29 Гбайт (89%)
Библиотека кодирования : XviD 1.2.0.dev47 (UTC 2006-11-01)

Аудио
Идентификатор : 1
Формат : AC-3
Формат/Информация : Audio Coding 3
Расширение режима : CM (complete main)
Параметр Endianness формата : Big
Идентификатор кодека : 2000
Продолжительность : 1 ч. 54 м.
Вид битрейта : Постоянный
Битрейт : 192 Кбит/сек
Каналы : 1 канал
Расположение каналов : Front: C
Частота : 48,0 КГц
Метод сжатия : С потерями
Размер потока : 157 Мбайт (11%)
Выравнивание : Разделение по промежуткам
Продолжительность промежутка : 42 мс. (1,00 видеокадр)
Время предзагрузки промежутка : 500 мс.



Скачать Скорпион.Scorpio.(Майкл.Уиннер).[1973.боевик.триллер.драма.BDRip].[MVO].torrent без регистрации
Золото ЗОЛОТАЯ РАЗДАЧА! СКАЧАННОЕ НЕ ЗАСЧИТЫВАЕТСЯ! Золото
Дата: Зарегистрирован   [ Тип: внутренний ] Как тут cкачать?
MAGNET ссылка
MAGNET ссылка


Скачать .torrent

15 KB

Статус: проверено DHT
Скачан: торрент - 14 раз, раздача полностью - 13 раз
Размер: 1,45 GB
Оценка:  - (Голосов: 0)
Поблагодарили: 0
Поделиться ссылкой на эту раздачу с друзьями:
В контактеFacebookОдноклассникиTwitterLivejournalМой МирLiveinternet
 

 
Показать сообщения:    


Вы не можете начинать темы
Вы не можете отвечать на сообщения
Вы не можете редактировать свои сообщения
Вы не можете удалять свои сообщения
Вы не можете голосовать в опросах
Вы не можете прикреплять файлы к сообщениям
Вы можете скачивать файлы