Loading...
Error

Скачать Обмани меня / Lie to me (Сезон 01-03, серии 01-48 из 48) (Кларк Джонсон, Роберт Швентке) [2009-2011, триллер, драма, криминал, детектив, WEB-DL] [720p] [DUB] (ТВ3) торрент без регистрации

 
Статистика раздачи
Размер:  77,46 GB   |    Скачан:  44 раза
Сидов:  1  [  0 KB/s  ]  
 
Автор Сообщение

leon030982

[] 

Обмани меня / Lie to me


Год выхода: 2009-2011
Выпущено: США
Жанр: триллер, драма, криминал, детектив
Продолжительность: 48 х ~ 00:45:00
Перевод: Профессиональный (Полное дублирование) - ТВ3
Субтитры: нет

Режиссер: Кларк Джонсон, Роберт Швентке

В ролях: Тим Рот, Келли Уильямс, Брендан Хайнс, Моника Рэйманд


Доктор Лайтман считает, что все врут. И чтобы доказать это, ему достаточно всего лишь пару минут пообщаться с человеком. Любое движение, жест, любое неосторожное слово могут выдать в вас лжеца. Надо лишь уметь это увидеть. Среднестатистический человек врет три раза за десять минут разговора. Задача доктора Лайтмана и его коллег распознать эту ложь, и, используя свои таланты, они спасают от тюрьмы невиновных и сажают за решетку преступников. К Агентству Лайтмана обращаются за помощью федералы, правительство, Конгресс и даже премьер-министр Узбекистана. Но может ли человек быть счастлив, если видит, что все вокруг постоянно лгут?



Качество: WEB-DL 720p
Формат: MKV
Видео кодек: AVC
Аудио кодек: AC3
Видео: MPEG-4 AVC, ~ 3995 Кбит/с, 1280x720, 23.976 fps
Аудио №1: 48 kHz, AC3 Dolby Digital, 2 ch, ~192.00 kbps avg [DUB]
Аудио №2: 48 kHz, AC3 Dolby Digital, 6 ch, ~384.00 kbps avg [ENG]
Формат : Matroska
Версия формата : Version 2
Размер файла : 1,37 Гбайт
Продолжительность : 44 м.
Общий поток : 4459 Кбит/сек
Дата кодирования : UTC 2012-12-30 19:45:34
Программа кодирования : mkvmerge v5.7.0 ('The Whirlwind') built on Jul 8 2012 20:08:51
Библиотека кодирования : libebml v1.2.3 + libmatroska v1.3.0

Видео
Идентификатор : 1
Формат : AVC
Формат/Информация : Advanced Video Codec
Профиль формата : High@L3.1
Параметр CABAC формата : Нет
Параметр ReFrames формата : 2 кадра
Идентификатор кодека : V_MPEG4/ISO/AVC
Продолжительность : 44 м.
Битрейт : 3995 Кбит/сек
Ширина : 1280 пикселей
Высота : 720 пикселей
Соотношение сторон : 16:9
Режим частоты кадров : Постоянный
Частота кадров : 23,976 кадра/сек
Цветовое пространство : YUV
Субдискретизация насыщенности : 4:2:0
Битовая глубина : 8 бит
Тип развёртки : Прогрессивная
Бит/(Пиксели*Кадры) : 0.176
Размер потока : 1,17 Гбайт (85%)
Заголовок : Release for HDClub by doc.logan
Язык : English
Default : Да
Forced : Нет
Основные цвета : BT.709
Характеристики трансфера : BT.709
Коэффициенты матрицы : BT.709

Аудио #1
Идентификатор : 2
Формат : AC-3
Формат/Информация : Audio Coding 3
Расширение режима : CM (complete main)
Параметр Endianness формата : Big
Идентификатор кодека : A_AC3
Продолжительность : 44 м.
Вид битрейта : Постоянный
Битрейт : 192 Кбит/сек
Каналы : 2 канала
Расположение каналов : Front: L R
Частота : 48,0 КГц
Битовая глубина : 16 бит
Метод сжатия : С потерями
Размер потока : 60,5 Мбайт (4%)
Заголовок : tv3
Язык : Russian
Default : Да
Forced : Нет

Аудио #2
Идентификатор : 3
Формат : AC-3
Формат/Информация : Audio Coding 3
Расширение режима : CM (complete main)
Параметр Endianness формата : Big
Идентификатор кодека : A_AC3
Продолжительность : 44 м.
Вид битрейта : Постоянный
Битрейт : 384 Кбит/сек
Каналы : 6 каналов
Расположение каналов : Front: L C R, Side: L R, LFE
Частота : 48,0 КГц
Битовая глубина : 16 бит
Метод сжатия : С потерями
Размер потока : 121 Мбайт (9%)
Язык : English
Default : Нет
Forced : Нет

Код:





Скачать Обмани.меня.Lie.to.me.(Сезон.01-03.серии.01-48.из.48).(Кларк.Джонсон.Роберт.Швентке).[2009-2011.триллер.драма.криминал.детектив.WEB-DL].[720p].[DUB].(ТВ3).torrent без регистрации
Золото ЗОЛОТАЯ РАЗДАЧА! СКАЧАННОЕ НЕ ЗАСЧИТЫВАЕТСЯ! Золото
Дата: Зарегистрирован   [ Тип: внутренний ] Как тут cкачать?
MAGNET ссылка
MAGNET ссылка


Скачать .torrent

391 KB

Статус: проверено DHT
Скачан: торрент - 44 раз, раздача полностью - 109 раз
Размер: 77,46 GB
Оценка:  - (Голосов: 0)
Поблагодарили: 0
Поделиться ссылкой на эту раздачу с друзьями:
В контактеFacebookОдноклассникиTwitterLivejournalМой МирLiveinternet
 

 
Показать сообщения:    


Вы не можете начинать темы
Вы не можете отвечать на сообщения
Вы не можете редактировать свои сообщения
Вы не можете удалять свои сообщения
Вы не можете голосовать в опросах
Вы не можете прикреплять файлы к сообщениям
Вы можете скачивать файлы