Loading...
Error

Скачать Чудо в Вальбю / Miraklet i Valby (Оке Сандгрен) [1989, приключения, фантастика, семейный, DVDRip] [VO (Семен Ващенко)]+[Sub]x2 торрент без регистрации

 
Статистика раздачи
Размер:  1,48 GB   |    Скачан:  4 раза

Полного источника не было: 26 минут

 
Автор Сообщение

Marsianka

[] 

Информация о фильме
Название: Чудо в Вальбю / Датское приключение
Оригинальное название: Miraklet i Valby / Dansk adventure
Год выхода: 1989
Жанр: приключения, фантастика, семейный
Режиссер: Оке Сандгрен
В ролях: Джейкоб Кац, Троелс Асмуссен, Лина Инглунд, Амалия Ихл Альструп, Грегерс Рейманн, Йенс Оккинг, Ингвар Хирдвалль, Карен-Лиза Мюнстер, Петер Хессе Овергаард, Мона Сейлитц

О фильме:
Четырнадцатилетний Свен - технический гений, перестроивший старый трейлер в радиокоммуникационный центр, при помощи которого он выходит на связь со своим отцом, который плавает на большом судне на другой части земного шара. Но в один из дней радиопередача прерывается какими-то звуками, похожими на Латинскую мессу. В школе Свен посещает уроки по радиоастрономии. Там ему учитель обьясняет, что астрономы получают радиоволны, которым могут быть тысячи лет. Свен понимает, что звуки Латинской мессы, которую он слышал, были переданы из другой эпохи. Ему становится любопытно и он подключает свой радиоцентр к большим антеннам. Когда он сидел в трейлере вместе с друзьями Бо и Петрой, они не только услышали звуки мессы, но весь трейлер превратился в машину времени и перенес их в средние века. Там они попадают в неприятности с воинами, захватившими Петру, в то время как Свен и Бо смогли сбежать при помощи своей машины времени. Но двоим мальчишкам придется снова на ней вернуться...



Производство: Дания, Швеция / Det Danske Filminstitut, Esselte Video, Nordisk Film
Продолжительность: 01:21:08
Перевод: любительский (одноголосый закадровый) [Семен Ващенко]

Файл
Качество: DVDRip
Формат: AVI
Видео: XviD, 720x448 (16:10), 25.000 fps, 2017 kbps, 0.25 bit/pixel
Аудио #1: русский, AC3 2.0, 48 kHz, 192 kbps
Аудио #2: датский, AC3 2.0, 48 kHz, 384 kbps
Субтитры: русские [Северный], английские внешние, SRT
Формат : AVI
Формат/Информация : Audio Video Interleave
Размер файла : 1,48 Гбайт
Продолжительность : 1 ч. 21 м.
Общий поток : 2608 Кбит/сек
Программа кодирования : VirtualDubModRus 1.5.10.2 (build 2542/release)
Библиотека кодирования : VirtualDubMod build 2542/release

Видео
Идентификатор : 0
Формат : MPEG-4 Visual
Профиль формата : Advanced Simple@L5
Параметр BVOP формата : 1
Параметр QPel формата : Нет
Параметр GMC формата : Без точки перехода
Параметр матрицы формата : Выборочная
Идентификатор кодека : XVID
Идентификатор кодека/Подсказка : XviD
Продолжительность : 1 ч. 21 м.
Битрейт : 2017 Кбит/сек
Ширина : 720 пикселей
Высота : 448 пикселей
Соотношение сторон : 16:10
Частота кадров : 25,000 кадров/сек
Цветовое пространство : YUV
Субдискретизация насыщенности : 4:2:0
Битовая глубина : 8 бит
Тип развёртки : Прогрессивная
Метод сжатия : С потерями
Бит/(Пиксели*Кадры) : 0.250
Размер потока : 1,14 Гбайт (77%)
Библиотека кодирования : XviD 1.2.1 (UTC 2008-12-04)

Аудио #1
Идентификатор : 1
Формат : AC-3
Формат/Информация : Audio Coding 3
Расширение режима : CM (complete main)
Параметр Endianness формата : Big
Идентификатор кодека : 2000
Продолжительность : 1 ч. 21 м.
Вид битрейта : Постоянный
Битрейт : 192 Кбит/сек
Каналы : 2 канала
Расположение каналов : Front: L R
Частота : 48,0 КГц
Метод сжатия : С потерями
Размер потока : 111 Мбайт (7%)
Выравнивание : Разделение по промежуткам
Продолжительность промежутка : 40 мс. (1,00 видеокадр)
Время предзагрузки промежутка : 500 мс.

Аудио #2
Идентификатор : 2
Формат : AC-3
Формат/Информация : Audio Coding 3
Расширение режима : CM (complete main)
Параметр Endianness формата : Big
Идентификатор кодека : 2000
Продолжительность : 1 ч. 21 м.
Вид битрейта : Постоянный
Битрейт : 384 Кбит/сек
Каналы : 2 канала
Расположение каналов : Front: L R
Частота : 48,0 КГц
Метод сжатия : С потерями
Размер потока : 223 Мбайт (15%)
Выравнивание : Разделение по промежуткам
Продолжительность промежутка : 40 мс. (1,00 видеокадр)
Время предзагрузки промежутка : 500 мс.



Скачать Чудо.в.Вальбю.Miraklet.i.Valby.(Оке.Сандгрен).[1989.приключения.фантастика.семейный.DVDRip].[VO.(Семен.Ващенко)]+[Sub]x2.torrent без регистрации
Золото ЗОЛОТАЯ РАЗДАЧА! СКАЧАННОЕ НЕ ЗАСЧИТЫВАЕТСЯ! Золото
Дата: Зарегистрирован   [ Тип: внутренний ] Как тут cкачать?
MAGNET ссылка
MAGNET ссылка


Скачать .torrent

16 KB

Статус: проверено DHT
Скачан: торрент - 4 раз, раздача полностью - 2 раз
Размер: 1,48 GB
Оценка:  - (Голосов: 0)
Поблагодарили: 0
Поделиться ссылкой на эту раздачу с друзьями:
В контактеFacebookОдноклассникиTwitterLivejournalМой МирLiveinternet
 

 
Показать сообщения:    


Вы не можете начинать темы
Вы не можете отвечать на сообщения
Вы не можете редактировать свои сообщения
Вы не можете удалять свои сообщения
Вы не можете голосовать в опросах
Вы не можете прикреплять файлы к сообщениям
Вы можете скачивать файлы