Loading...
Error

Скачать Тот, кто меня бережет / Someone to Watch Over Me (Ридли Скотт) [1987, боевик, триллер, криминал, мелодрама, WEB-DLRip-AVC] [DVO]+[MVO]+[AVO (А.Гаврилов)]+[Sub]x2 торрент без регистрации

 
Статистика раздачи
Размер:  2,18 GB   |    Скачан:  6 раз
Сидов:  1  [  0 KB/s  ]  
 
Автор Сообщение

Marsianka

[] 

Производство: США / Columbia Pictures Corporation
Жанр: боевик, триллер, криминал, мелодрама
Продолжительность: 01:46:30

Режиссер: Ридли Скотт

Актеры: Том Беренджер, Мими Роджерс, Лоррейн Бракко, Джерри Орбак, Джон Рубинстайн, Андреас Кацулас, Тони ДиБенедетто, Джеймс Э. Мориарти, Марк Мозес, Дэниэл Хью Келли

Описание:
Полицейский Майк Киган получает задание охранять богатую даму из высшего общества Клэр Грегори, после того как она оказалась свидетелем зверского убийства, и теперь убийца охотится за нею. Киган счастливо женат, его только что повысили до детектива, а тут на него свалилась соблазнительная и притягательная Клэр — он должен быть с ней днем и ночью…



Качество: WEB-DLRip-AVC
Видео: AVC, 1024x576 (16:9), 23.976 fps, 2 358 Kbps (0.167 bit/pixel)
Профессиональный (двухголосый, закадровый) Видеосервис + Профессиональный (многоголосый, закадровый) [пара вставок из Гаврилова] + Авторский (одноголосый, закадровый) А.Гаврилов
Язык субтитров: Русский, английский
Вид субтитров: Вшитые отключаемые
Аудио #1: AC-3, 48.0 KHz, 2 ch, 192 Kbps, CBR (Russian) - двухголосый (Видеосервис)
Аудио #2: AC-3, 48.0 KHz, 2 ch, 192 Kbps, CBR (Russian) - многоголосый
Аудио #3: AC-3, 48.0 KHz, 2 ch, 192 Kbps, CBR (Russian) - авторский А.Гаврилов

Формат : Matroska
Версия формата : Version 2
Размер файла : 2,18 Гбайт
Продолжительность : 1 ч. 46 м.
Общий поток : 2936 Кбит/сек
Дата кодирования : UTC 2016-07-11 05:14:44
Программа кодирования : mkvmerge v5.3.0 ('I could have danced') built on Feb 9 2012 10:38:07
Библиотека кодирования : libebml v1.2.3 + libmatroska v1.3.0
Attachment : Yes

Видео
Идентификатор : 1
Формат : AVC
Формат/Информация : Advanced Video Codec
Профиль формата : High@L4.1
Параметр CABAC формата : Да
Параметр ReFrames формата : 11 кадров
Идентификатор кодека : V_MPEG4/ISO/AVC
Продолжительность : 1 ч. 46 м.
Битрейт : 2358 Кбит/сек
Ширина : 1024 пикселя
Высота : 576 пикселей
Соотношение сторон : 16:9
Режим частоты кадров : Постоянный
Частота кадров : 23,976 кадра/сек
Цветовое пространство : YUV
Субдискретизация насыщенности : 4:2:0
Битовая глубина : 8 бит
Тип развёртки : Прогрессивная
Бит/(Пиксели*Кадры) : 0.167
Размер потока : 1,71 Гбайт (78%)
Библиотека кодирования : x264 core 146 r2538 121396c
Настройки программы : cabac=1 / ref=11 / deblock=1:-2:-2 / analyse=0x3:0x133 / me=umh / subme=10 / psy=1 / psy_rd=1.00:0.10 / mixed_ref=1 / me_range=32 / chroma_me=1 / trellis=2 / 8x8dct=1 / cqm=0 / deadzone=21,11 / fast_pskip=0 / chroma_qp_offset=-3 / threads=12 / lookahead_threads=2 / sliced_threads=0 / nr=0 / decimate=0 / interlaced=0 / bluray_compat=0 / constrained_intra=0 / bframes=8 / b_pyramid=2 / b_adapt=2 / b_bias=0 / direct=3 / weightb=1 / open_gop=0 / weightp=2 / keyint=240 / keyint_min=23 / scenecut=40 / intra_refresh=0 / rc_lookahead=40 / rc=2pass / mbtree=0 / bitrate=2358 / ratetol=1.0 / qcomp=0.60 / qpmin=0 / qpmax=69 / qpstep=4 / cplxblur=20.0 / qblur=0.5 / vbv_maxrate=50000 / vbv_bufsize=62500 / nal_hrd=none / filler=0 / ip_ratio=1.40 / pb_ratio=1.30 / aq=2:0.80
Default : Да
Forced : Нет

Аудио #1
Идентификатор : 2
Формат : AC-3
Формат/Информация : Audio Coding 3
Расширение режима : CM (complete main)
Параметр Endianness формата : Big
Идентификатор кодека : A_AC3
Продолжительность : 1 ч. 46 м.
Вид битрейта : Постоянный
Битрейт : 192 Кбит/сек
Каналы : 2 канала
Расположение каналов : Front: L R
Частота : 48,0 КГц
Битовая глубина : 16 бит
Метод сжатия : С потерями
Задержка видео : 24 мс.
Размер потока : 146 Мбайт (7%)
Заголовок : ПД (Видеосервис)
Язык : Russian
Default : Да
Forced : Да

Аудио #2
Идентификатор : 3
Формат : AC-3
Формат/Информация : Audio Coding 3
Расширение режима : CM (complete main)
Параметр Endianness формата : Big
Идентификатор кодека : A_AC3
Продолжительность : 1 ч. 46 м.
Вид битрейта : Постоянный
Битрейт : 192 Кбит/сек
Каналы : 2 канала
Расположение каналов : Front: L R
Частота : 48,0 КГц
Битовая глубина : 16 бит
Метод сжатия : С потерями
Задержка видео : 24 мс.
Размер потока : 146 Мбайт (7%)
Заголовок : ПМ
Язык : Russian
Default : Нет
Forced : Да

Аудио #3
Идентификатор : 4
Формат : AC-3
Формат/Информация : Audio Coding 3
Расширение режима : CM (complete main)
Параметр Endianness формата : Big
Идентификатор кодека : A_AC3
Продолжительность : 1 ч. 46 м.
Вид битрейта : Постоянный
Битрейт : 192 Кбит/сек
Каналы : 2 канала
Расположение каналов : Front: L R
Частота : 48,0 КГц
Битовая глубина : 16 бит
Метод сжатия : С потерями
Задержка видео : 24 мс.
Размер потока : 146 Мбайт (7%)
Заголовок : АП (Гаврилов)
Язык : Russian
Default : Нет
Forced : Да

Текст #1
Идентификатор : 5
Формат : UTF-8
Идентификатор кодека : S_TEXT/UTF8
Идентификатор кодека/Информация : UTF-8 Plain Text
Заголовок : Sub
Язык : Russian
Default : Нет
Forced : Нет

Текст #2
Идентификатор : 6
Формат : UTF-8
Идентификатор кодека : S_TEXT/UTF8
Идентификатор кодека/Информация : UTF-8 Plain Text
Заголовок : Sub
Язык : English
Default : Нет
Forced : Нет

Меню
00:00:00.000 : en:Someone To Watch Over Me
00:02:56.000 : en:Party In Queens
00:06:27.000 : en:Party In Manhattan
00:10:08.000 : en:Wrong Place And Time
00:12:15.000 : en:First Assignment
00:19:37.000 : en:Claire's Apartment
00:23:22.000 : en:First Shift
00:29:14.000 : en:"I Have To Go Out."
00:32:13.000 : en:Shopping For A Tie
00:33:13.000 : en:The Guggenheim
00:36:39.000 : en:The Ladie's Room
00:38:27.000 : en:Pursuing Venza
00:42:27.000 : en:Just Checking
00:45:28.000 : en:Cocktails
00:50:57.000 : en:The Line-up
00:52:12.000 : en:"Venza's Out."
00:54:59.000 : en:Comforting Claire
00:57:22.000 : en:"Somebody's Outside."
01:06:14.000 : en:An Early Dinner
01:09:40.000 : en:The Jogger
01:13:27.000 : en:Watching Over Mike
01:15:03.000 : en:The Hitman
01:20:26.000 : en:Suspended
01:24:47.000 : en:Checking In
01:28:32.000 : en:Anniversary Dinner
01:32:01.000 : en:Venza Calls
01:34:01.000 : en:At Mike's House
01:38:48.000 : en:A Cop's Daughter



Скачать Тот.кто.меня.бережет.Someone.to.Watch.Over.Me.(Ридли.Скотт).[1987.боевик.триллер.криминал.мелодрама.WEB-DLRip-AVC].[DVO]+[MVO]+[AVO.(А.Гаврилов)]+[Sub]x2.torrent без регистрации
Золото ЗОЛОТАЯ РАЗДАЧА! СКАЧАННОЕ НЕ ЗАСЧИТЫВАЕТСЯ! Золото
Дата: Зарегистрирован   [ Тип: внутренний ] Как тут cкачать?
MAGNET ссылка
MAGNET ссылка


Скачать .torrent

12 KB

Статус: проверено DHT
Скачан: торрент - 6 раз, раздача полностью - 16 раз
Размер: 2,18 GB
Оценка:  - (Голосов: 0)
Поблагодарили: 1
Поделиться ссылкой на эту раздачу с друзьями:
В контактеFacebookОдноклассникиTwitterLivejournalМой МирLiveinternet
 

 
Показать сообщения:    


Вы не можете начинать темы
Вы не можете отвечать на сообщения
Вы не можете редактировать свои сообщения
Вы не можете удалять свои сообщения
Вы не можете голосовать в опросах
Вы не можете прикреплять файлы к сообщениям
Вы можете скачивать файлы