Loading...
Error

/ Just Like Heaven ( / Mark Waters) [2005, , , , WEB-DLRip] [Dub]

 
1,46 GB   |    :  13
1  [  0 KB/s  ]  
 

leon030982

[] 

/ Just Like Heaven
.



: 2005
: / DreamWorks SKG, MacDonald/Parkes Productions
: , ,
: 01:34:52
: ( )
C:

: / Mark Waters

: (Elizabeth), (David), (Jack), (Abby), (Brett), (Darryl), (Katrina), (Fran), (Grace), (Dr. Walsh), (Maitre D'), (Nurse Maria), (Nurse Bill)


- , , , . , - , , . : ...



: WEB-DLRip [Just.Like.Heaven.2005.720p.WEB-DL.Rus.Eng.HDCLUB]
: AVI
: 720x400 (1.80:1), 23.976 fps, XviD build 73 ~1804 kbps avg, 0.26 bit/pixel
: 48 kHz, AC3 Dolby Digital, 3/2 (L,C,R,l,r) + LFE ch, ~384.00 kbps avg

-- dalemake

:

General
Complete name : D:\Mezhdu_nebom_i_zemlyoi_2005_WEB_DLRip_by_Dalemake.avi
Format : AVI
Format/Info : Audio Video Interleave
File size : 1.46 GiB
Duration : 1h 34mn
Overall bit rate : 2 197 Kbps
Writing application : VirtualDubMod 1.5.10.3 | www.virtualdub-fr.org || (build 2550/release)
Writing library : VirtualDubMod build 2550/release
Video
ID : 0
Format : MPEG-4 Visual
Format profile : Advanced Simple@L5
Format settings, BVOP : 1
Format settings, QPel : No
Format settings, GMC : No warppoints
Format settings, Matrix : Custom
Codec ID : XVID
Codec ID/Hint : XviD
Duration : 1h 34mn
Bit rate : 1 804 Kbps
Width : 720 pixels
Height : 400 pixels
Display aspect ratio : 16:9
Frame rate : 23.976 fps
Color space : YUV
Chroma subsampling : 4:2:0
Bit depth : 8 bits
Scan type : Progressive
Compression mode : Lossy
Bits/(Pixel*Frame) : 0.261
Stream size : 1.20 GiB (82%)
Writing library : XviD 73
Audio
ID : 1
Format : AC-3
Format/Info : Audio Coding 3
Mode extension : CM (complete main)
Format settings, Endianness : Big
Codec ID : 2000
Duration : 1h 34mn
Bit rate mode : Constant
Bit rate : 384 Kbps
Channel(s) : 6 channels
Channel positions : Front: L C R, Side: L R, LFE
Sampling rate : 48.0 KHz
Bit depth : 16 bits
Compression mode : Lossy
Stream size : 260 MiB (17%)
Alignment : Split accross interleaves
Interleave, duration : 42 ms (1.00 video frame)
Interleave, preload duration : 500 ms

:

WEB-DL "".




....Just.Like.Heaven.(..Mark.Waters).[2005....WEB-DLRip].[Dub].torrent
  ! ! 
:   [ : ] c?
MAGNET
MAGNET


.torrent

15 KB

: DHT
: - 13 , - 28
: 1,46 GB
- (: 0)
: 1
:
 FacebookTwitterLivejournal Liveinternet
 

 
: