Loading...
Error

Скачать Охотники за головами 2 / Bounty hunters 2: Hardball (Джордж Эршбэймер) [1997, боевик, драма, BDRip] [AVO (Сергей Кузнецов)] торрент без регистрации

 
Статистика раздачи
Размер:  1,46 GB   |    Скачан:  8 раз
Сидов:  1  [  0 KB/s  ]  
 
Автор Сообщение

Marsianka

[] 

Страна: Канада, США
Жанр: боевик, драма
Год выпуска: 1997
Продолжительность: 01:36:51

Перевод: Авторский (одноголосый закадровый) Сергей Кузнецов
Cубтитры: нет
Режиссер: Джордж Эршбэймер / George Erschbamer

В ролях: Майкл Дудикофф, Лиза Ховард, Тони Кёртис, Стив Бачич, Л. Харви Голд, Пабло Коффи, Риз МакБет, Эйприл Телек, Клер Райли, Гари Чок, Дейл Уилсон, Алекс Грин, Роберт Молони, Дэнни Уоттли, Стефен Димопоулос, Майкл Копса, Брэд Лори, Энн Опеншоу.

Описание: Спецагент по поимке беглецов перешел дорогу боссам местной мафии, и они заказали его убийство. Опаснейшие столкновения, преследования, захват заложников, множество взрывов, и в финале этой кровавой битвы только один останется в живых.



Автор рипа: Sem-te

Релиз от:

Качество видео: BDRip (Исходник: / BD-Remux / 1080p)
Формат видео: AVI

Видео: 704x400 (1.76:1), 23.976 fps, XviD build 73 ~1958 kbps avg, 0.29 bit/pixel
Аудио: 48 kHz, AC3 Dolby Digital, 2/0 (L,R) ch, ~192 kbps


General
Format : AVI
Format/Info : Audio Video Interleave
File size : 1.46 GiB
Duration : 1h 36mn
Overall bit rate : 2 160 Kbps
Writing application : VirtualDubMod 1.5.10.3 | www.virtualdub-fr.org || (build 2550/release)
Writing library : VirtualDubMod build 2550/release

Video
ID : 0
Format : MPEG-4 Visual
Format profile : Advanced Simple@L5
Format settings, BVOP : 1
Format settings, QPel : No
Format settings, GMC : No warppoints
Format settings, Matrix : Custom
Codec ID : XVID
Codec ID/Hint : XviD
Duration : 1h 36mn
Bit rate : 1 959 Kbps
Width : 704 pixels
Height : 400 pixels
Display aspect ratio : 16:9
Frame rate : 23.976 fps
Color space : YUV
Chroma subsampling : 4:2:0
Bit depth : 8 bits
Scan type : Progressive
Compression mode : Lossy
Bits/(Pixel*Frame) : 0.290
Stream size : 1.33 GiB (91%)
Writing library : XviD 73

Audio
ID : 1
Format : AC-3
Format/Info : Audio Coding 3
Mode extension : CM (complete main)
Format settings, Endianness : Big
Codec ID : 2000
Duration : 1h 36mn
Bit rate mode : Constant
Bit rate : 192 Kbps
Channel(s) : 2 channels
Channel positions : Front: L R
Sampling rate : 48.0 KHz
Bit depth : 16 bits
Compression mode : Lossy
Stream size : 133 MiB (9%)
Alignment : Split accross interleaves
Interleave, duration : 42 ms (1.00 video frame)
Interleave, preload duration : 500 ms



Скачать Охотники.за.головами.2.Bounty.hunters.2.Hardball.(Джордж.Эршбэймер).[1997.боевик.драма.BDRip].[AVO.(Сергей.Кузнецов)].torrent без регистрации
Золото ЗОЛОТАЯ РАЗДАЧА! СКАЧАННОЕ НЕ ЗАСЧИТЫВАЕТСЯ! Золото
Дата: Зарегистрирован   [ Тип: внутренний ] Как тут cкачать?
MAGNET ссылка
MAGNET ссылка


Скачать .torrent

15 KB

Статус: проверено DHT
Скачан: торрент - 8 раз, раздача полностью - 1 раз
Размер: 1,46 GB
Оценка:  - (Голосов: 0)
Поблагодарили: 0
Поделиться ссылкой на эту раздачу с друзьями:
В контактеFacebookОдноклассникиTwitterLivejournalМой МирLiveinternet
 

 
Показать сообщения:    


Вы не можете начинать темы
Вы не можете отвечать на сообщения
Вы не можете редактировать свои сообщения
Вы не можете удалять свои сообщения
Вы не можете голосовать в опросах
Вы не можете прикреплять файлы к сообщениям
Вы можете скачивать файлы