Loading...
Error

Скачать Снова 18 / Опять 18! / 18 Again! (Пол Флаэрти) [1988, комедия, DVDRip-AVC] [AVO (А.Михалёв)] торрент без регистрации

 
Статистика раздачи
Размер:  1,45 GB   |    Скачан:  7 раз
Сидов:  1  [  0 KB/s  ]  
 
Автор Сообщение

Marsianka

[] 

Производство: США, New World Entertainment
Жанр: комедия

Режиссер: Пол Флаэрти
Актеры: Джордж Бёрнс, Чарли Шлэттер, Тони Робертс, Анита Морри, Мириам Флинн, Ред Баттонс, Анита Моррис, Поли Шор, Дженнифер Раньон, Эрл Боэн

Описание:
Дэвиду — 18 лет, а его деду Джеку только что исполнился 81 год. У Дэвида проблемы со спортивными зачетами, потому что он увлекается рисованием и прочими искусствами. Дед в его возрасте был классным бегуном, но стал суперпрактичным бизнесменом и главой преуспевающей фирмы. Дэвид рядом с девушками крайне застенчив, а дед и на девятом десятке запросто склеит любую встречную молодуху. Тем не менее старик Джек, имеющий все и всех, жалеет только об одном — о том, что ему не восемнадцать лет. И однажды его мечта сбывается! В результате автомобильной катастрофы тело деда оказывается в реанимации, а душа его временно находит себе иное пристанище — в теле внука. И жизнь резко меняется для обоих.



Продолжительность: 01:40:09
Качество видео: DVDRip-AVC
Перевод: Авторский (одноголосый, закадровый) А.Михалёв

Видео: AVC, 720x400 (16:9), 23.976 fps, 1 885 Kbps (0.273 bit/pixel)
Аудио: AC-3 Dolby Digital, 48.0 KHz, 2 ch, 192 Kbps

Формат : Matroska
Версия формата : Version 2
Размер файла : 1,45 Гбайт
Продолжительность : 1 ч. 40 м.
Общий поток : 2078 Кбит/сек
Дата кодирования : UTC 2016-07-13 13:12:51
Программа кодирования : mkvmerge v5.3.0 ('I could have danced') built on Feb 9 2012 10:38:07
Библиотека кодирования : libebml v1.2.3 + libmatroska v1.3.0
Attachment : Yes

Видео
Идентификатор : 1
Формат : AVC
Формат/Информация : Advanced Video Codec
Профиль формата : High@L4.1
Параметр CABAC формата : Да
Параметр ReFrames формата : 9 кадров
Идентификатор кодека : V_MPEG4/ISO/AVC
Продолжительность : 1 ч. 40 м.
Битрейт : 1885 Кбит/сек
Ширина : 720 пикселей
Высота : 400 пикселей
Соотношение сторон : 16:9
Режим частоты кадров : Постоянный
Частота кадров : 23,976 кадра/сек
Цветовое пространство : YUV
Субдискретизация насыщенности : 4:2:0
Битовая глубина : 8 бит
Тип развёртки : Прогрессивная
Бит/(Пиксели*Кадры) : 0.273
Размер потока : 1,29 Гбайт (89%)
Библиотека кодирования : x264 core 146 r2538 121396c
Настройки программы : cabac=1 / ref=9 / deblock=1:-3:-3 / analyse=0x3:0x133 / me=umh / subme=10 / psy=1 / psy_rd=1.10:0.00 / mixed_ref=1 / me_range=32 / chroma_me=1 / trellis=2 / 8x8dct=1 / cqm=0 / deadzone=21,11 / fast_pskip=0 / chroma_qp_offset=-2 / threads=12 / lookahead_threads=2 / sliced_threads=0 / nr=0 / decimate=1 / interlaced=0 / bluray_compat=0 / constrained_intra=0 / bframes=7 / b_pyramid=2 / b_adapt=2 / b_bias=0 / direct=3 / weightb=1 / open_gop=0 / weightp=2 / keyint=240 / keyint_min=23 / scenecut=40 / intra_refresh=0 / rc=2pass / mbtree=0 / bitrate=1885 / ratetol=1.0 / qcomp=0.60 / qpmin=0 / qpmax=69 / qpstep=4 / cplxblur=20.0 / qblur=0.5 / ip_ratio=1.40 / pb_ratio=1.30 / aq=2:0.70
Default : Да
Forced : Нет

Аудио
Идентификатор : 2
Формат : AC-3
Формат/Информация : Audio Coding 3
Профиль формата : Dolby Digital
Расширение режима : CM (complete main)
Параметр Endianness формата : Big
Идентификатор кодека : A_AC3
Продолжительность : 1 ч. 40 м.
Вид битрейта : Постоянный
Битрейт : 192 Кбит/сек
Каналы : 2 канала
Расположение каналов : Front: L R
Частота : 48,0 КГц
Битовая глубина : 16 бит
Метод сжатия : С потерями
Размер потока : 138 Мбайт (9%)
Default : Да
Forced : Нет



Скачать Снова.18.Опять.18!.18.Again!.(Пол.Флаэрти).[1988.комедия.DVDRip-AVC].[AVO.(А.Михалёв)].torrent без регистрации
Золото ЗОЛОТАЯ РАЗДАЧА! СКАЧАННОЕ НЕ ЗАСЧИТЫВАЕТСЯ! Золото
Дата: Зарегистрирован   [ Тип: внутренний ] Как тут cкачать?
MAGNET ссылка
MAGNET ссылка


Скачать .torrent

15 KB

Статус: проверено DHT
Скачан: торрент - 7 раз, раздача полностью - 1 раз
Размер: 1,45 GB
Оценка:  - (Голосов: 0)
Поблагодарили: 0
Поделиться ссылкой на эту раздачу с друзьями:
В контактеFacebookОдноклассникиTwitterLivejournalМой МирLiveinternet
 

 
Показать сообщения:    


Вы не можете начинать темы
Вы не можете отвечать на сообщения
Вы не можете редактировать свои сообщения
Вы не можете удалять свои сообщения
Вы не можете голосовать в опросах
Вы не можете прикреплять файлы к сообщениям
Вы можете скачивать файлы