Loading...
Error

Скачать К югу от Луны / South of the Moon (Антонио ДиВердис) [2008, драма, DVDRip-AVC] [VO] торрент без регистрации

 
Статистика раздачи
Размер:  1,71 GB   |    Скачан:  8 раз
Сидов:  1  [  0 KB/s  ]  
 
Автор Сообщение

Marsianka

[] 

Информация о фильме
Название: К югу от Луны
Оригинальное название: South of the Moon
Год выхода: 2008
Жанр: драма
Режиссер: Антонио ДиВердис
В ролях: Джон Ралстон, Джейк МакЛеод, Мойя О’Коннелл, Дэниэл Дживерин, Джейн Хейтмейер, Ларри Дэй, Джонатан Боско, Девери Джейкобс, Кэтлин МакОлиффи, Бьянка Мерджел

О фильме:
Двенадцатилетнему Колеману снится женщина, с которой они гуляют в полях. Мать, до странности торопливо, отмахивается от утренних вопросов сына, а отец обрывает любые попытки заговорить о волнующих Колемана проблемах, нарочито скучными нотациями и поучениями....
Изумительно красивый фильм, перекликающийся с лучшими образцами скандинавской кинематографии, но снятый в Канаде...
История мальчика, находящегося на перекрёстке сложных и запутанных путей взросления, и его самого близкого человека - родного дяди, с болью и муками переживающего свою не сложившуюся жизнь. Жизнь разворачивается перед Колеманом, преподнося ему всё новые уроки взросления, - первая влюблённость, первая любовь, первый выбор, первые потери.... Хорошо, что дядя Мэт всегда рядом, - может посочувствовать, понять, помочь, подсказать ответы на вопросы.... И горе им, - "Во многих знаниях - многие печали..."



Производство: Канада / Stargaze Pictures
Продолжительность: 01:48:32
Озвучивание: любительское (одноголосое закадровое) [smart]
Перевод: Алексей Беспроблемный и Дмитрий Дулов

Файл
Качество: DVDRip-AVC
Формат: MKV
Видео: MPEG-4 AVC, 704x352@852x352, 29.970 fps, 1864 kbps, 0.251 bit/pixel
Аудио #1: русский, AC3 2.0, 44.1 kHz, 192 kbps
Аудио #2: английский, AC3 2.0, 48 kHz, 192 kbps
Формат : Matroska
Версия формата : Version 4 / Version 2
Размер файла : 1,71 Гбайт
Продолжительность : 1 ч. 48 м.
Общий поток : 2250 Кбит/сек
Дата кодирования : UTC 2016-07-13 12:37:15
Программа кодирования : mkvmerge v7.9.0 ('Birds') 64bit
Библиотека кодирования : libebml v1.3.1 + libmatroska v1.4.2
DURATION : 01:48:32.439000000
NUMBER_OF_FRAMES : 195178
NUMBER_OF_BYTES : 1517435686
_STATISTICS_WRITING_APP : mkvmerge v9.1.0 ('Little Earthquakes') 64bit
_STATISTICS_WRITING_DATE_UTC : 2016-07-09 18:42:59
_STATISTICS_TAGS : BPS DURATION NUMBER_OF_FRAMES NUMBER_OF_BYTES

Видео
Идентификатор : 1
Формат : AVC
Формат/Информация : Advanced Video Codec
Профиль формата : High@L4
Параметр CABAC формата : Да
Параметр ReFrames формата : 4 кадра
Идентификатор кодека : V_MPEG4/ISO/AVC
Продолжительность : 1 ч. 48 м.
Битрейт : 1864 Кбит/сек
Ширина : 704 пикселя
Высота : 352 пикселя
Соотношение сторон : 2,40:1
Соотношение сторон в оригинале : 2,40:1
Режим частоты кадров : Постоянный
Частота кадров : 29,970 кадров/сек
Цветовое пространство : YUV
Субдискретизация насыщенности : 4:2:0
Битовая глубина : 8 бит
Тип развёртки : Прогрессивная
Бит/(Пиксели*Кадры) : 0.251
Размер потока : 1,38 Гбайт (81%)
Библиотека кодирования : x264 core 105 r1724 b02df7b
Настройки программы : cabac=1 / ref=3 / deblock=1:0:0 / analyse=0x3:0x113 / me=hex / subme=7 / psy=1 / psy_rd=1.00:0.00 / mixed_ref=1 / me_range=16 / chroma_me=1 / trellis=1 / 8x8dct=1 / cqm=0 / deadzone=21,11 / fast_pskip=1 / chroma_qp_offset=-2 / threads=3 / sliced_threads=0 / nr=0 / decimate=1 / interlaced=0 / constrained_intra=0 / bframes=3 / b_pyramid=2 / b_adapt=1 / b_bias=0 / direct=1 / weightb=1 / open_gop=0 / weightp=2 / keyint=100 / keyint_min=10 / scenecut=40 / intra_refresh=0 / rc_lookahead=40 / rc=2pass / mbtree=1 / bitrate=1864 / ratetol=1.0 / qcomp=0.60 / qpmin=10 / qpmax=51 / qpstep=4 / cplxblur=20.0 / qblur=0.5 / vbv_maxrate=20000 / vbv_bufsize=25000 / ip_ratio=1.40 / aq=1:1.00 / nal_hrd=none
Язык : English
Default : Да
Forced : Нет

Аудио #1
Идентификатор : 2
Формат : AC-3
Формат/Информация : Audio Coding 3
Расширение режима : CM (complete main)
Параметр Endianness формата : Big
Идентификатор кодека : A_AC3
Продолжительность : 1 ч. 48 м.
Вид битрейта : Постоянный
Битрейт : 192 Кбит/сек
Каналы : 2 канала
Расположение каналов : Front: L R
Частота : 44,1 КГц
Метод сжатия : С потерями
Размер потока : 149 Мбайт (9%)
Заголовок : smart
Язык : Russian
Default : Да
Forced : Нет

Аудио #2
Идентификатор : 3
Формат : AC-3
Формат/Информация : Audio Coding 3
Расширение режима : CM (complete main)
Параметр Endianness формата : Big
Идентификатор кодека : A_AC3
Продолжительность : 1 ч. 48 м.
Вид битрейта : Постоянный
Битрейт : 192 Кбит/сек
Каналы : 2 канала
Расположение каналов : Front: L R
Частота : 48,0 КГц
Метод сжатия : С потерями
Размер потока : 149 Мбайт (9%)
Язык : English
Default : Нет
Forced : Нет
Релиз от:



Скачать К.югу.от.Луны.South.of.the.Moon.(Антонио.ДиВердис).[2008.драма.DVDRip-AVC].[VO].torrent без регистрации
Золото ЗОЛОТАЯ РАЗДАЧА! СКАЧАННОЕ НЕ ЗАСЧИТЫВАЕТСЯ! Золото
Дата: Зарегистрирован   [ Тип: внутренний ] Как тут cкачать?
MAGNET ссылка
MAGNET ссылка


Скачать .torrent

18 KB

Статус: проверено DHT
Скачан: торрент - 8 раз, раздача полностью - 0 раз
Размер: 1,71 GB
Оценка:  - (Голосов: 0)
Поблагодарили: 2
Поделиться ссылкой на эту раздачу с друзьями:
В контактеFacebookОдноклассникиTwitterLivejournalМой МирLiveinternet
 

 
Показать сообщения:    


Вы не можете начинать темы
Вы не можете отвечать на сообщения
Вы не можете редактировать свои сообщения
Вы не можете удалять свои сообщения
Вы не можете голосовать в опросах
Вы не можете прикреплять файлы к сообщениям
Вы можете скачивать файлы