Loading...
Error

Скачать Сад зла / Garden of Evil (Генри Хэтэуэй) [1954, боевик, драма, мелодрама, приключения, вестерн, BDRip-AVC] [MVO]+[Оригинал] торрент без регистрации

 
Статистика раздачи
Размер:  1,54 GB   |    Скачан:  7 раз

Полного источника не было: 28 минут

 
Автор Сообщение

Marsianka

[] 

Название: Сад зла
Оригинальное название: Garden of Evil
Год выпуска: 1954
Страна: США
Жанр: боевик, драма, мелодрама, приключения, вестерн
Продолжительность: 01:40:08
Перевод: профессиональный многоголосый

Режиссёр: Генри Хэтэуэй

В ролях: Гэри Купер, Сьюзен Хэйуорд, Ричард Уидмарк, Хью Марлоу, Кэмерон Митчелл, Рита Морено, Виктор Мануэль Мендоза, Антонио Брибиска, Мануэль Донде, Артуро Сото Рангель, Сальвадор Терроба, Фернандо Вагнер

Описание: В баре мексиканского маленького портового городка «Пуэрто Мигель» из-за вынужденной стоянки парохода, плывущего в США, оказываются трое авантюристов Хукер, Фиске и Люк. Эти, совершенно разные по темпераменту люди, всегда не прочь заработать лёгких денег. Неожиданно в бар входит молодая женщина по имени Ли и предлагает тысячу долларов любому, кто поможет спасти её мужа Джона, застрявшего в ловушке обвалившейся шахты, где он нашёл золотую жилу. Парни, не моргнув глазом, соглашаются на эту сделку. Им предстоит пересечь опасную территорию, кишащую враждебно настроенными индейцами, вставшими на тропу войны с бледнолицыми...



Качество: BDRip AVC Сравнение с исходником
Формат: MKV
Видео: MPEG-4 AVC, 1776 Кбит/с, 1024x402, 23,976 кадра/с
Аудио 1: русский, AC3, 192 kbps, 2 ch, 48 kHz [профессиональный многоголосый]
Аудио 2: английский, AC3, 192 kbps, 2 ch, 48 kHz [оригинал]
Общее
Уникальный идентификатор : 249626842843742628497734182574919839815 (0xBBCC6193692D6679B5226E22B204F047)
Полное имя : D:VideoСад зла.1954.BDRip.AVC.mkv
Формат : Matroska
Версия формата : Version 4 / Version 2
Размер файла : 1,54 Гбайт
Продолжительность : 1 ч. 40 м.
Общий поток : 2204 Кбит/сек
Название фильма : BDRip -- STarankov
Дата кодирования : UTC 2015-11-19 04:27:25
Программа кодирования : mkvmerge v8.2.0 ('World of Adventure') 64bit
Библиотека кодирования : libebml v1.3.1 + libmatroska v1.4.2
DURATION : 01:40:08.960000000
NUMBER_OF_FRAMES : 187780
NUMBER_OF_BYTES : 144215040
_STATISTICS_WRITING_APP : mkvmerge v8.2.0 ('World of Adventure') 64bit
_STATISTICS_WRITING_DATE_UTC : 2015-11-19 04:27:25
_STATISTICS_TAGS : BPS DURATION NUMBER_OF_FRAMES NUMBER_OF_BYTES

Видео
Идентификатор : 1
Формат : AVC
Формат/Информация : Advanced Video Codec
Профиль формата : High@L4.1
Параметр CABAC формата : Да
Параметр ReFrames формата : 9 кадров
Идентификатор кодека : V_MPEG4/ISO/AVC
Продолжительность : 1 ч. 40 м.
Битрейт : 1776 Кбит/сек
Ширина : 1024 пикселя
Высота : 402 пикселя
Соотношение сторон : 2,547
Режим частоты кадров : Постоянный
Частота кадров : 23,976 кадра/сек
Цветовое пространство : YUV
Субдискретизация насыщенности : 4:2:0
Битовая глубина : 8 бит
Тип развёртки : Прогрессивная
Бит/(Пиксели*Кадры) : 0.180
Размер потока : 1,24 Гбайт (81%)
Библиотека кодирования : x264 core 146 r2538 121396c
Настройки программы : cabac=1 / ref=9 / deblock=1:-1:-1 / analyse=0x3:0x113 / me=umh / subme=10 / psy=1 / psy_rd=1.00:0.15 / mixed_ref=1 / me_range=32 / chroma_me=1 / trellis=2 / 8x8dct=1 / cqm=0 / deadzone=21,11 / fast_pskip=1 / chroma_qp_offset=-3 / threads=6 / lookahead_threads=1 / sliced_threads=0 / nr=0 / decimate=1 / interlaced=0 / bluray_compat=0 / constrained_intra=0 / bframes=9 / b_pyramid=2 / b_adapt=2 / b_bias=0 / direct=1 / weightb=1 / open_gop=0 / weightp=2 / keyint=230 / keyint_min=23 / scenecut=40 / intra_refresh=0 / rc_lookahead=40 / rc=crf / mbtree=0 / crf=18.2 / qcomp=0.60 / qpmin=0 / qpmax=69 / qpstep=4 / vbv_maxrate=40000 / vbv_bufsize=50000 / crf_max=0.0 / nal_hrd=none / filler=0 / ip_ratio=1.40 / pb_ratio=1.30 / aq=1:1.00
Язык : English
Default : Да
Forced : Нет
DURATION : 01:40:08.711000000
NUMBER_OF_FRAMES : 144065
NUMBER_OF_BYTES : 1365499904
_STATISTICS_WRITING_APP : mkvmerge v8.2.0 ('World of Adventure') 64bit
_STATISTICS_WRITING_DATE_UTC : 2015-11-19 04:27:25
_STATISTICS_TAGS : BPS DURATION NUMBER_OF_FRAMES NUMBER_OF_BYTES

Аудио #1
Идентификатор : 2
Формат : AC-3
Формат/Информация : Audio Coding 3
Расширение режима : CM (complete main)
Параметр Endianness формата : Big
Идентификатор кодека : A_AC3
Продолжительность : 1 ч. 40 м.
Вид битрейта : Постоянный
Битрейт : 192 Кбит/сек
Каналы : 2 канала
Расположение каналов : Front: L R
Частота : 48,0 КГц
Метод сжатия : С потерями
Размер потока : 138 Мбайт (9%)
Заголовок : MVO (Рен ТВ)
Язык : Russian
Default : Да
Forced : Нет

Аудио #2
Идентификатор : 3
Формат : AC-3
Формат/Информация : Audio Coding 3
Расширение режима : CM (complete main)
Параметр Endianness формата : Big
Идентификатор кодека : A_AC3
Продолжительность : 1 ч. 40 м.
Вид битрейта : Постоянный
Битрейт : 192 Кбит/сек
Каналы : 2 канала
Расположение каналов : Front: L R
Частота : 48,0 КГц
Метод сжатия : С потерями
Размер потока : 138 Мбайт (9%)
Заголовок : Original
Язык : English
Default : Нет
Forced : Нет



Скачать Сад.зла.Garden.of.Evil.(Генри.Хэтэуэй).[1954.боевик.драма.мелодрама.приключения.вестерн.BDRip-AVC].[MVO]+[Оригинал].torrent без регистрации
Золото ЗОЛОТАЯ РАЗДАЧА! СКАЧАННОЕ НЕ ЗАСЧИТЫВАЕТСЯ! Золото
Дата: Зарегистрирован   [ Тип: внутренний ] Как тут cкачать?
MAGNET ссылка
MAGNET ссылка


Скачать .torrent

16 KB

Статус: проверено DHT
Скачан: торрент - 7 раз, раздача полностью - 2 раз
Размер: 1,54 GB
Оценка:  4 (Голосов: 1)
Поблагодарили: 2
Поделиться ссылкой на эту раздачу с друзьями:
В контактеFacebookОдноклассникиTwitterLivejournalМой МирLiveinternet
 

 
Показать сообщения:    


Вы не можете начинать темы
Вы не можете отвечать на сообщения
Вы не можете редактировать свои сообщения
Вы не можете удалять свои сообщения
Вы не можете голосовать в опросах
Вы не можете прикреплять файлы к сообщениям
Вы можете скачивать файлы