Loading...
Error

Скачать Серые сады / Grey Gardens (Майкл Сакси) [2009, драма, биография.DVDRip-AVC] [MVO]+[Sub]x3 торрент без регистрации

 
Статистика раздачи
Размер:  1,69 GB   |    Скачан:  19 раз
Сидов:  1  [  0 KB/s  ]  
 
Автор Сообщение

Marsianka

[] 

Информация о фильме
Название: Серые сады
Оригинальное название: Grey Gardens
Год выхода: 2009
Жанр: драма, биография
Режиссер: Майкл Сакси
В ролях: Дрю Бэрримор, Джессика Лэнг, Джинн Трипплхорн, Дэниэл Болдуин, Джастин Луис, Ари Гросс, Кен Ховард, Марсия Беннетт, Джошуа Пиис

О фильме:
Действие в фильме будет растянуто на 40 лет. В этой драме, основанной на реальных фактах, актрисы сыграют двух эксцентричных родственниц Жаклин Кеннеди-Онассис, которые оказались в центре всеобщего внимания после того, как отдел здравоохранения вознамерился очистить их владения в Восточном Хэмптоне, штат Нью-Йорк, от заполонивших эту территорию енотов и мелких насекомых.


Страна: США
Студия: HBO Films, Specialty Films (II), Locomotive
Продолжительность: 01:43:53.436
Перевод: Профессиональный (многоголосый закадровый) телеканал Amedia 1

Файл
Кодек: h.264
Качество: DVDRip-AVC Источник R1 DVD9 HBO Films
Видео: 720x480 (16:9) @ 853x480, 23.976 fps, AVC, ~1685 Kbps, 0.203 bits/pixel

Русский, 48.0 KHz, AC3, 2 ch, 192 Kbps
Английский, 48.0 KHz, AC3, 6 ch, 448 Kbps
Субтитры:
Английский, VobSub
Французский, VobSub
Испанский, VobSub
Общее
Уникальный идентификатор : 215595594707529666180588656656450726858 (0xA23233800AD4AE44853AB6A7FDFA2BCA)
Полное имя : I:FilmsSeriye_Sadi.2009.DVDRip-AVC.mkv
Формат : Matroska
Версия формата : Version 4 / Version 2
Размер файла : 1,69 Гбайт
Продолжительность : 1 ч. 43 м.
Общий поток : 2332 Кбит/сек
Дата кодирования : UTC 2016-01-25 14:25:58
Программа кодирования : mkvmerge v8.8.0 ('Wind at my back') 64bit
Библиотека кодирования : libebml v1.3.3 + libmatroska v1.4.4

Видео
Идентификатор : 1
Формат : AVC
Формат/Информация : Advanced Video Codec
Профиль формата : High@L4.1
Параметр CABAC формата : Да
Параметр ReFrames формата : 11 кадров
Идентификатор кодека : V_MPEG4/ISO/AVC
Продолжительность : 1 ч. 43 м.
Битрейт : 1685 Кбит/сек
Ширина : 720 пикселей
Высота : 480 пикселей
Соотношение сторон : 16:9
Режим частоты кадров : Постоянный
Частота кадров : 23,976 (24000/1001) кадра/сек
Цветовое пространство : YUV
Субдискретизация насыщенности : 4:2:0
Битовая глубина : 8 бит
Тип развёртки : Прогрессивная
Бит/(Пиксели*Кадры) : 0.203
Размер потока : 1,22 Гбайт (72%)
Библиотека кодирования : x264 core 148 r2638 7599210
Настройки программы : cabac=1 / ref=11 / deblock=1:0:0 / analyse=0x3:0x133 / me=umh / subme=11 / psy=1 / psy_rd=1.10:0.15 / mixed_ref=1 / me_range=48 / chroma_me=1 / trellis=2 / 8x8dct=1 / cqm=0 / deadzone=21,11 / fast_pskip=0 / chroma_qp_offset=-3 / threads=8 / lookahead_threads=2 / sliced_threads=0 / nr=0 / decimate=0 / interlaced=0 / bluray_compat=0 / constrained_intra=0 / bframes=10 / b_pyramid=2 / b_adapt=2 / b_bias=0 / direct=3 / weightb=1 / open_gop=0 / weightp=2 / keyint=240 / keyint_min=23 / scenecut=40 / intra_refresh=0 / rc_lookahead=60 / rc=2pass / mbtree=0 / bitrate=1685 / ratetol=1.0 / qcomp=0.60 / qpmin=0 / qpmax=69 / qpstep=4 / cplxblur=20.0 / qblur=0.5 / vbv_maxrate=40000 / vbv_bufsize=50000 / nal_hrd=none / filler=0 / ip_ratio=1.40 / pb_ratio=1.30 / aq=1:1.00
Default : Нет
Forced : Нет
Цветовой диапазон : Limited
Коэффициенты матрицы : BT.601

Аудио #1
Идентификатор : 2
Формат : AC-3
Формат/Информация : Audio Coding 3
Расширение режима : CM (complete main)
Параметр Endianness формата : Big
Идентификатор кодека : A_AC3
Продолжительность : 1 ч. 43 м.
Вид битрейта : Постоянный
Битрейт : 192 Кбит/сек
Каналы : 2 канала
Расположение каналов : Front: L R
Частота : 48,0 КГц
Частота кадров : 31,250 кадров/сек (1536 spf)
Метод сжатия : С потерями
Размер потока : 143 Мбайт (8%)
Язык : Russian
Default : Да
Forced : Нет

Аудио #2
Идентификатор : 3
Формат : AC-3
Формат/Информация : Audio Coding 3
Расширение режима : CM (complete main)
Параметр Endianness формата : Big
Идентификатор кодека : A_AC3
Продолжительность : 1 ч. 43 м.
Вид битрейта : Постоянный
Битрейт : 448 Кбит/сек
Каналы : 6 каналов
Расположение каналов : Front: L C R, Side: L R, LFE
Частота : 48,0 КГц
Частота кадров : 31,250 кадров/сек (1536 spf)
Метод сжатия : С потерями
Размер потока : 333 Мбайт (19%)
Язык : English
Default : Нет
Forced : Нет

Текст #1
Идентификатор : 4
Формат : VobSub
Режим смешивания : zlib
Идентификатор кодека : S_VOBSUB
Идентификатор кодека/Информация : Picture based subtitle format used on DVDs
Продолжительность : 1 ч. 42 м.
Битрейт : 1935 бит/сек
Count of elements : 1221
Размер потока : 1,42 Мбайт (0%)
Язык : English
Default : Нет
Forced : Нет

Текст #2
Идентификатор : 5
Формат : VobSub
Режим смешивания : zlib
Идентификатор кодека : S_VOBSUB
Идентификатор кодека/Информация : Picture based subtitle format used on DVDs
Продолжительность : 1 ч. 42 м.
Битрейт : 1894 бит/сек
Count of elements : 1183
Размер потока : 1,39 Мбайт (0%)
Язык : French
Default : Нет
Forced : Нет

Текст #3
Идентификатор : 6
Формат : VobSub
Режим смешивания : zlib
Идентификатор кодека : S_VOBSUB
Идентификатор кодека/Информация : Picture based subtitle format used on DVDs
Продолжительность : 1 ч. 42 м.
Битрейт : 1923 бит/сек
Count of elements : 1169
Размер потока : 1,41 Мбайт (0%)
Язык : Spanish
Default : Нет
Forced : Нет

Меню
00:00:00.000 : en:Chapter 01
00:09:21.300 : en:Chapter 02
00:15:47.201 : en:Chapter 03
00:24:28.935 : en:Chapter 04
00:33:02.968 : en:Chapter 05
00:42:56.001 : en:Chapter 06
00:51:21.401 : en:Chapter 07
01:01:02.168 : en:Chapter 08
01:11:27.335 : en:Chapter 09
01:21:31.335 : en:Chapter 10
01:28:30.735 : en:Chapter 11
01:38:52.069 : en:Chapter 12
01:43:46.236 : en:Chapter 13
frame I:1152 Avg QP:16.28 size: 52936
frame P:29398 Avg QP:19.13 size: 19475
frame B:118903 Avg QP:20.64 size: 5708
Релиз от: Temperest



Скачать Серые.сады.Grey.Gardens.(Майкл.Сакси).[2009.драма.биография.DVDRip-AVC].[MVO]+[Sub]x3.torrent без регистрации
Золото ЗОЛОТАЯ РАЗДАЧА! СКАЧАННОЕ НЕ ЗАСЧИТЫВАЕТСЯ! Золото
Дата: Зарегистрирован   [ Тип: внутренний ] Как тут cкачать?
MAGNET ссылка
MAGNET ссылка


Скачать .torrent

18 KB

Статус: проверено DHT
Скачан: торрент - 19 раз, раздача полностью - 24 раз
Размер: 1,69 GB
Оценка:  - (Голосов: 0)
Поблагодарили: 1
Поделиться ссылкой на эту раздачу с друзьями:
В контактеFacebookОдноклассникиTwitterLivejournalМой МирLiveinternet
 

 
Показать сообщения:    


Вы не можете начинать темы
Вы не можете отвечать на сообщения
Вы не можете редактировать свои сообщения
Вы не можете удалять свои сообщения
Вы не можете голосовать в опросах
Вы не можете прикреплять файлы к сообщениям
Вы можете скачивать файлы