Loading...
Error

Скачать Сфера / Sphere (Бэрри Левинсон) [1998, триллер, фантастика, HDRip] [AVO (Ю.Живов)] торрент без регистрации

 
Статистика раздачи
Размер:  2,18 GB   |    Скачан:  5 раз
Сидов:  1  [  0 KB/s  ]  
 
Автор Сообщение

МихаНЕзатор

[] 

Производство: США, Warner Bros. Pictures, Baltimore Pictures, Constant c Productions, Punch Productions Inc.
Жанр: триллер, фантастика
Перевод: Авторский (одноголосый, закадровый) Ю.Живов
Субтитры: Отсутствуют
Режиссер: Бэрри Левинсон

Актеры: Дастин Хоффман, Шэрон Стоун, Сэмюэл Л. Джексон, Питер Койот, Лив Шрайбер, Куин Латифа, Марга Гомез, Хьюи Льюис, Бернард Хок, Джеймс Пикенс мл., Майкл Кис Холл

Описание: Глубоко под водами Тихого океана американским официальным службам удалось обнаружить возможно величайшую в истории человечества находку – огромный космический корабль, рухнувший в пучины 300 лет назад. Каково происхождение этого корабля. Возможно, на нем сохранился некий разум? Членам элитной подводной экспедиции, поручено дать ответы на эти вопросы. Фильм «Сфера», действие которого, разворачивается под водой, держит вас в глубоком напряжении и открывает новое измерение в жанре триллера. Таинственный ужас, с которым сталкивается подводная команда, забирается глубоко в подсознание.



Качество видео: HDRip
Видео: Xvid, 720x304, ~1870 kbps
Аудио: AC3, 6 ch, 448 Kbps

АНОНСЫ ПОПУЛЯРНЫХ РАЗДАЧ

Формат : AVI
Формат/Информация : Audio Video Interleave
Профиль формата : OpenDML
Размер файла : 2,18 Гбайт
Продолжительность : 2 ч. 14 м.
Общий поток : 2329 Кбит/сек
Программа кодирования : VirtualDubMod 1.5.10.3 | www.virtualdub-fr.org || (build 2550/release)
Библиотека кодирования : VirtualDubMod build 2550/release

Видео
Идентификатор : 0
Формат : MPEG-4 Visual
Профиль формата : Advanced Simple@L5
Параметр BVOP формата : 1
Параметр QPel формата : Нет
Параметр GMC формата : Без точки перехода
Параметр матрицы формата : Выборочная
Идентификатор кодека : XVID
Идентификатор кодека/Подсказка : XviD
Продолжительность : 2 ч. 14 м.
Битрейт : 1870 Кбит/сек
Ширина : 720 пикселей
Высота : 304 пикселя
Соотношение сторон : 2,35:1
Частота кадров : 23,976 кадра/сек
Цветовое пространство : YUV
Субдискретизация насыщенности : 4:2:0
Битовая глубина : 8 бит
Тип развёртки : Прогрессивная
Метод сжатия : С потерями
Бит/(Пиксели*Кадры) : 0.356
Размер потока : 1,75 Гбайт (80%)
Библиотека кодирования : XviD 73

Аудио
Идентификатор : 1
Формат : AC-3
Формат/Информация : Audio Coding 3
Расширение режима : CM (complete main)
Параметр Endianness формата : Big
Идентификатор кодека : 2000
Продолжительность : 2 ч. 14 м.
Вид битрейта : Постоянный
Битрейт : 448 Кбит/сек
Каналы : 6 каналов
Расположение каналов : Front: L C R, Side: L R, LFE
Частота : 48,0 КГц
Битовая глубина : 16 бит
Метод сжатия : С потерями
Размер потока : 430 Мбайт (19%)
Выравнивание : Разделение по промежуткам
Продолжительность промежутка : 42 мс. (1,00 видеокадр)
Время предзагрузки промежутка : 500 мс.



Скачать Сфера.Sphere.(Бэрри.Левинсон).[1998.триллер.фантастика.HDRip].[AVO.(Ю.Живов)].torrent без регистрации
Золото ЗОЛОТАЯ РАЗДАЧА! СКАЧАННОЕ НЕ ЗАСЧИТЫВАЕТСЯ! Золото
Дата: Зарегистрирован   [ Тип: внутренний ] Как тут cкачать?
MAGNET ссылка
MAGNET ссылка


Скачать .torrent

12 KB

Статус: проверено DHT
Скачан: торрент - 5 раз, раздача полностью - 19 раз
Размер: 2,18 GB
Оценка:  - (Голосов: 0)
Поблагодарили: 0
Поделиться ссылкой на эту раздачу с друзьями:
В контактеFacebookОдноклассникиTwitterLivejournalМой МирLiveinternet
 

 
Показать сообщения:    


Вы не можете начинать темы
Вы не можете отвечать на сообщения
Вы не можете редактировать свои сообщения
Вы не можете удалять свои сообщения
Вы не можете голосовать в опросах
Вы не можете прикреплять файлы к сообщениям
Вы можете скачивать файлы