Loading...
Error

Скачать Робби / Robby (Ральф Блюмке) [1968, драма, приключения, DVDRip-AVC] [VO] торрент без регистрации

 
Статистика раздачи
Размер:  1,16 GB   |    Скачан:  8 раз
Сидов:  1  [  0 KB/s  ]  
 
Автор Сообщение

Marsianka

[] 

Информация о фильме
Название: Робби
Оригинальное название: Robby
Год выхода: 1968
Жанр: драма, приключения
Режиссер: Ральф Блюмке
В ролях: Джон Гарсес, Рита Эллиот, Уоррен Раум, Рип Сиани, Норвин Баскервиль, Ральф Блюмке, Джон Вудбридж

О фильме:
После кораблекрушения мальчик оказывается один на необитаемом острове. Вскоре он встречает местного парнишку, который тоже остался без семьи и, не долго думая, дает ему имя Пятница. Новые Робинзон и Пятница осваиваются в совместной жизни на острове, полной опасностей и тревог. И как ни вглядывается Робби в горизонт — ни одного корабля не видно поблизости.
Но однажды во время рыбалки они встречают на острове нового человека. Теперь Робби снова обрел надежду вернуться домой и соединиться со своей семьей.



Производство: США / Bluewood, AWARD Films
Продолжительность: 00:57:53
Перевод: любительский (одноголосый закадровый)

Файл
Качество: DVDRip-AVC
Формат: MKV
Видео: MPEG-4 AVC, 720x540 (4:3), 29.970 fps, 2470 kbps, 0.212 bit/pixel
Аудио #1: русский, AC3 2.0, 48 kHz, 192 kbps
Аудио #2: английский, AC3 2.0, 48 kHz, 192 kbps
Формат : Matroska
Версия формата : Version 2
Размер файла : 1,16 Гбайт
Продолжительность : 57 м.
Общий поток : 2860 Кбит/сек
Дата кодирования : UTC
Программа кодирования : HandBrake 0.10.2 2015060900
Библиотека кодирования : Lavf55.12.0

Видео
Идентификатор : 1
Формат : AVC
Формат/Информация : Advanced Video Codec
Профиль формата : High@L4.1
Параметр CABAC формата : Да
Параметр ReFrames формата : 4 кадра
Идентификатор кодека : V_MPEG4/ISO/AVC
Продолжительность : 57 м.
Битрейт : 2470 Кбит/сек
Ширина : 720 пикселей
Высота : 540 пикселей
Соотношение сторон : 4:3
Режим частоты кадров : Постоянный
Частота кадров : 29,970 кадров/сек
Цветовое пространство : YUV
Субдискретизация насыщенности : 4:2:0
Битовая глубина : 8 бит
Тип развёртки : Прогрессивная
Бит/(Пиксели*Кадры) : 0.212
Размер потока : 1001 Мбайт (85%)
Библиотека кодирования : x264 core 142 r2479 dd79a61
Настройки программы : cabac=1 / ref=3 / deblock=1:-3:-3 / analyse=0x3:0x113 / me=hex / subme=8 / psy=1 / psy_rd=1.00:0.00 / mixed_ref=1 / me_range=16 / chroma_me=1 / trellis=1 / 8x8dct=1 / cqm=0 / deadzone=21,11 / fast_pskip=1 / chroma_qp_offset=-2 / threads=6 / lookahead_threads=1 / sliced_threads=0 / nr=0 / decimate=1 / interlaced=0 / bluray_compat=0 / constrained_intra=0 / bframes=3 / b_pyramid=2 / b_adapt=1 / b_bias=0 / direct=1 / weightb=1 / open_gop=0 / weightp=2 / keyint=300 / keyint_min=30 / scenecut=40 / intra_refresh=0 / rc_lookahead=40 / rc=2pass / mbtree=1 / bitrate=2470 / ratetol=1.0 / qcomp=0.60 / qpmin=0 / qpmax=69 / qpstep=4 / cplxblur=20.0 / qblur=0.5 / vbv_maxrate=62500 / vbv_bufsize=78125 / nal_hrd=none / filler=0 / ip_ratio=1.40 / aq=1:1.00
Default : Да
Forced : Нет
Цветовой диапазон : Limited
Основные цвета : BT.601 NTSC
Характеристики трансфера : BT.709
Коэффициенты матрицы : BT.601

Аудио #1
Идентификатор : 2
Формат : AC-3
Формат/Информация : Audio Coding 3
Расширение режима : CM (complete main)
Параметр Endianness формата : Big
Идентификатор кодека : A_AC3
Продолжительность : 57 м.
Вид битрейта : Постоянный
Битрейт : 192 Кбит/сек
Каналы : 2 канала
Расположение каналов : Front: L R
Частота : 48,0 КГц
Метод сжатия : С потерями
Задержка видео : 27 мс.
Размер потока : 79,5 Мбайт (7%)
Заголовок : Stereo
Язык : Russian
Default : Да
Forced : Нет

Аудио #2
Идентификатор : 3
Формат : AC-3
Формат/Информация : Audio Coding 3
Расширение режима : CM (complete main)
Параметр Endianness формата : Big
Идентификатор кодека : A_AC3
Продолжительность : 57 м.
Вид битрейта : Постоянный
Битрейт : 192 Кбит/сек
Каналы : 2 канала
Расположение каналов : Front: L R
Частота : 48,0 КГц
Метод сжатия : С потерями
Задержка видео : 27 мс.
Размер потока : 79,5 Мбайт (7%)
Заголовок : Stereo
Язык : English
Default : Нет
Forced : Нет

Меню
00:00:00.000 : :Chapter 1
00:04:45.853 : :Chapter 2
00:07:34.521 : :Chapter 3
00:11:48.775 : :Chapter 4
00:15:30.497 : :Chapter 5
00:17:44.130 : :Chapter 6
00:21:58.885 : :Chapter 7
00:24:25.531 : :Chapter 8
00:28:37.783 : :Chapter 9
00:33:10.556 : :Chapter 10
00:36:08.233 : :Chapter 11
00:38:39.384 : :Chapter 12
00:41:52.577 : :Chapter 13
00:43:47.192 : :Chapter 14
00:45:42.307 : :Chapter 15
00:48:52.997 : :Chapter 16
00:52:27.211 : :Chapter 17
00:54:59.864 : :Chapter 18
00:56:12.937 : :Chapter 19
00:56:41.966 : :Chapter 20



Скачать Робби.Robby.(Ральф.Блюмке).[1968.драма.приключения.DVDRip-AVC].[VO].torrent без регистрации
Золото ЗОЛОТАЯ РАЗДАЧА! СКАЧАННОЕ НЕ ЗАСЧИТЫВАЕТСЯ! Золото
Дата: Зарегистрирован   [ Тип: внутренний ] Как тут cкачать?
MAGNET ссылка
MAGNET ссылка


Скачать .torrent

12 KB

Статус: проверено DHT
Скачан: торрент - 8 раз, раздача полностью - 7 раз
Размер: 1,16 GB
Оценка:  - (Голосов: 0)
Поблагодарили: 2
Поделиться ссылкой на эту раздачу с друзьями:
В контактеFacebookОдноклассникиTwitterLivejournalМой МирLiveinternet
 

 
Показать сообщения:    


Вы не можете начинать темы
Вы не можете отвечать на сообщения
Вы не можете редактировать свои сообщения
Вы не можете удалять свои сообщения
Вы не можете голосовать в опросах
Вы не можете прикреплять файлы к сообщениям
Вы можете скачивать файлы