Loading...
Error

Скачать Огонь и лёд / De feu et de glace (Джойс Бунюэль) [2008, драма, комедия, спорт, HDTVRip-AVC] [MVO] торрент без регистрации

 
Статистика раздачи
Размер:  2,02 GB   |    Скачан:  12 раз
Сидов:  2  [  0 KB/s  ]  
 
Автор Сообщение

Marsianka

[] 

Информация о фильме
Название: Огонь и лёд
Оригинальное название: De feu et de glace
Год выхода: 2008
Жанр: драма, комедия, спорт
Режиссер: Джойс Бунюэль
В ролях: Лори, Кристоф Малавуа, Надя Фоссье, Анни Грегорио, Линда Буэенни, Оливье Бенард, Кристиан Раут, Орели Бансийон, Кристоф Жаннель, Стив Чабан

О фильме:
Подававшая надежды фигуристка Алексия Морено пытается забыться в вечеринках после травмы, поставившей крест на её карьере. Она прожигает жизнь, пока не встречает Жака Рокеля — тренера, пообещавшего ей возвращение в большой спорт.



Страна: Франция
Студия: AT-Production, Merlin Productions, Radio Télévision Belge Francofone (RTBF), Télévision Suisse-Romande (TSR), TF1
Продолжительность: 01:30:14
Перевод: Профессиональный многоголосый

Файл
Кодек: h.264
Качество: HDTVRip - AVC
Видео: MPEG-4 AVC, ~2750 Кбит/с, 1024x576, 25.000 кадр/с
Звук: Русский (AC3, 6 ch, 448 Кбит/с) / Профессиональный многоголосый
Субтитры: Нет

Семпл
Общее
Уникальный идентификатор : 5874258425085389193108876787084610075 (0x46B574D1974EA7606A33B8502FACA1B)
Полное имя : D:uTorrentOgon.i.ljed.2008.HDTVRip.AVC.MediaClub.mkv
Формат : Matroska
Версия формата : Version 2
Размер файла : 2,02 Гбайт
Продолжительность : 1 ч. 30 м.
Общий поток : 3201 Кбит/сек
Дата кодирования : UTC 2016-07-14T09:55:40Z
Программа кодирования : HandBrake 0.10.5 2016021100
Библиотека кодирования : Lavf55.12.0 / Lavf55.12.0

Видео
Идентификатор : 1
Формат : AVC
Формат/Информация : Advanced Video Codec
Профиль формата : High@L4.1
Параметр CABAC формата : Да
Параметр ReFrames формата : 8 кадров
Идентификатор кодека : V_MPEG4/ISO/AVC
Продолжительность : 1 ч. 30 м.
Битрейт : 2750 Кбит/сек
Ширина : 1024 пикселя
Высота : 576 пикселей
Соотношение сторон : 16:9
Режим частоты кадров : Постоянный
Частота кадров : 25,000 кадров/сек
Цветовое пространство : YUV
Субдискретизация насыщенности : 4:2:0
Битовая глубина : 8 бит
Тип развёртки : Прогрессивная
Бит/(Пиксели*Кадры) : 0.186
Размер потока : 1,69 Гбайт (84%)
Библиотека кодирования : x264 core 142 r2479 dd79a61
Настройки программы : cabac=1 / ref=8 / deblock=1:-3:-3 / analyse=0x3:0x133 / me=umh / subme=9 / psy=1 / psy_rd=2.00:0.70 / mixed_ref=1 / me_range=16 / chroma_me=1 / trellis=2 / 8x8dct=1 / cqm=0 / deadzone=21,11 / fast_pskip=1 / chroma_qp_offset=-4 / threads=12 / lookahead_threads=1 / sliced_threads=0 / nr=0 / decimate=1 / interlaced=0 / bluray_compat=0 / constrained_intra=0 / bframes=3 / b_pyramid=2 / b_adapt=2 / b_bias=0 / direct=3 / weightb=1 / open_gop=0 / weightp=2 / keyint=250 / keyint_min=25 / scenecut=40 / intra_refresh=0 / rc_lookahead=60 / rc=2pass / mbtree=1 / bitrate=2750 / ratetol=1.0 / qcomp=0.60 / qpmin=0 / qpmax=69 / qpstep=4 / cplxblur=20.0 / qblur=0.5 / vbv_maxrate=62500 / vbv_bufsize=78125 / nal_hrd=none / filler=0 / ip_ratio=1.40 / aq=1:1.20
Default : Да
Forced : Нет
Цветовой диапазон : Limited
Основные цвета : BT.709
Характеристики трансфера : BT.709
Коэффициенты матрицы : BT.709

Аудио
Идентификатор : 2
Формат : AC-3
Формат/Информация : Audio Coding 3
Расширение режима : CM (complete main)
Параметр Endianness формата : Big
Идентификатор кодека : A_AC3
Продолжительность : 1 ч. 30 м.
Вид битрейта : Постоянный
Битрейт : 448 Кбит/сек
Каналы : 6 каналов
Расположение каналов : Front: L C R, Side: L R, LFE
Частота : 48,0 КГц
Частота кадров : 31,250 кадров/сек (1536 spf)
Метод сжатия : С потерями
Размер потока : 289 Мбайт (14%)
Заголовок : Surround
Язык : Russian
Default : Да
Forced : Нет
Релиз от: | Silverok



Скачать Огонь.и.лёд.De.feu.et.de.glace.(Джойс.Бунюэль).[2008.драма.комедия.спорт.HDTVRip-AVC].[MVO].torrent без регистрации
Золото ЗОЛОТАЯ РАЗДАЧА! СКАЧАННОЕ НЕ ЗАСЧИТЫВАЕТСЯ! Золото
Дата: Зарегистрирован   [ Тип: внешний ] Как тут cкачать?
MAGNET ссылка
MAGNET ссылка


Скачать .torrent

11 KB

Статус: проверено DHT
Скачан: торрент - 12 раз, раздача полностью - 22 раз
Размер: 2,02 GB
Оценка:  - (Голосов: 0)
Поблагодарили: 1
Поделиться ссылкой на эту раздачу с друзьями:
В контактеFacebookОдноклассникиTwitterLivejournalМой МирLiveinternet
 

 
Показать сообщения:    


Вы не можете начинать темы
Вы не можете отвечать на сообщения
Вы не можете редактировать свои сообщения
Вы не можете удалять свои сообщения
Вы не можете голосовать в опросах
Вы не можете прикреплять файлы к сообщениям
Вы можете скачивать файлы