Loading...
Error

Скачать Райский проект / Проект Лазарь / The Lazarus Project (Джон Гленн / John Glenn) [2008, Триллер, драма, детектив, HDRip] [MVO] (СВ-Дубль) + 2x[AVO] (В.Горчаков, С.Визгунов) + [Sub] (Rus) + [Orig] (Eng) торрент без регистрации

 
Статистика раздачи
Размер:  2,3 GB   |    Скачан:  14 раз
Сидов:  1  [  0 KB/s  ]  
 
Автор Сообщение

leon030982

[] 

Райский проект / Проект Лазарь / The Lazarus Project

«От реальности нет спасения»


Год выпуска: 2008
Страна: США, Канада, Великобритания
Жанр: Триллер, драма, детектив
Продолжительность: 01:39:46
Перевод 1: Профессиональный (многоголосый закадровый) СВ-Дубль
Перевод 2: Авторский (одноголосый закадровый) Василий Горчаков
Перевод 3: Авторский (одноголосый закадровый) Сергей Визгунов
Cубтитры: русские, английские
Оригинальная аудиодорожка: английский

Режиссер: Джон Гленн / John Glenn

В ролях: Пол Уокер, Пайпер Перабо, Бруклин Пру, Боб Гантон, Ламбер Вильсон, Линда Карделлини, Тони Карран, Малкольм Гудвин, Росс МакМиллан, Аарон Хьюз, Шон Хэтоси, Алекс Сол, Трэйси Н. Смит, Фрэнк Эдамсон, Ли Эннс, Сьюзэн Келсо, Ти Вуд, Лиза Дурупт, Джессика Бёрлсон, Майк О’Брайэн, Онали Эймс, Дэн Скин

Описание: Триллер о человеке, который потерял всё то, что любил, и, чтобы вернуть назад свою семью и вернуться к нормальной жизни, ему придётся встретиться лицом к лицу с мистическими явлениями, пройти бесчисленное количество испытаний собственной веры, тронуться рассудком и изучить самые тёмные уголки своей души.



Автор рипа: Sem-te
Релиз от:
Исходник: The.Lazarus.Project.2008.BDRip.(1080p)
Качество видео: HDRip
Формат видео: AVI
Видео: 720x304 (2.37:1), 23.976 fps, XviD build 73 ~1880 kbps avg, 0.36 bit/pixel
Аудио 1: 48 kHz, AC3 Dolby Digital, 2/0 (L,R) ch, ~192 kbps | СВ-Дубль
Аудио 2: 48 kHz, AC3 Dolby Digital, 3/2 (L,C,R,l,r) + LFE ch, ~384.00 kbps avg | Василий Горчаков (отдельно)
Аудио 3: 48 kHz, AC3 Dolby Digital, 3/2 (L,C,R,l,r) + LFE ch, ~384.00 kbps avg | Сергей Визгунов (отдельно)
Аудио 4: 48 kHz, AC3 Dolby Digital, 3/2 (L,C,R,l,r) + LFE ch, ~448.00 kbps avg | Original Eng (отдельно)
Доп. информация: За перевод СВ-Дубль спасибо Sem-te, за синхронизацию перевода огромное спасибо *Sergeant_am*. За авторские переводы большое спасибо whalekilla и за предоставленные русские субтитры спасибо Дэн 107miller.
General
Format : AVI
Format/Info : Audio Video Interleave
File size : 1.45 GiB
Duration : 1h 39mn
Overall bit rate : 2 082 Kbps
Writing application : VirtualDubMod 1.5.10.3 | www.virtualdub-fr.org || (build 2550/release)
Writing library : VirtualDubMod build 2550/release
Video
ID : 0
Format : MPEG-4 Visual
Format profile : Advanced Simple@L5
Format settings, BVOP : 1
Format settings, QPel : No
Format settings, GMC : No warppoints
Format settings, Matrix : Custom
Codec ID : XVID
Codec ID/Hint : XviD
Duration : 1h 39mn
Bit rate : 1 880 Kbps
Width : 720 pixels
Height : 304 pixels
Display aspect ratio : 2.35:1
Frame rate : 23.976 fps
Color space : YUV
Chroma subsampling : 4:2:0
Bit depth : 8 bits
Scan type : Progressive
Compression mode : Lossy
Bits/(Pixel*Frame) : 0.358
Stream size : 1.31 GiB (90%)
Writing library : XviD 73
Audio
ID : 1
Format : AC-3
Format/Info : Audio Coding 3
Mode extension : CM (complete main)
Format settings, Endianness : Big
Codec ID : 2000
Duration : 1h 39mn
Bit rate mode : Constant
Bit rate : 192 Kbps
Channel(s) : 2 channels
Channel positions : Front: L R
Sampling rate : 48.0 KHz
Bit depth : 16 bits
Compression mode : Lossy
Stream size : 137 MiB (9%)
Alignment : Split accross interleaves
Interleave, duration : 42 ms (1.00 video frame)
Interleave, preload duration : 500 ms




Скачать Райский.проект.Проект.Лазарь.The.Lazarus.Project.(Джон.Гленн.John.Glenn).[2008.Триллер.драма.детектив.HDRip].[MVO].(СВ-Дубль).+.2x[AVO].(В.Горчаков.С.Визгунов).+.[Sub].(Rus).+.[Orig].(Eng).torrent без регистрации
Золото ЗОЛОТАЯ РАЗДАЧА! СКАЧАННОЕ НЕ ЗАСЧИТЫВАЕТСЯ! Золото
Дата: Зарегистрирован   [ Тип: внутренний ] Как тут cкачать?
MAGNET ссылка
MAGNET ссылка


Скачать .torrent

13 KB

Статус: проверено DHT
Скачан: торрент - 14 раз, раздача полностью - 1 раз
Размер: 2,3 GB
Оценка:  - (Голосов: 0)
Поблагодарили: 1
Поделиться ссылкой на эту раздачу с друзьями:
В контактеFacebookОдноклассникиTwitterLivejournalМой МирLiveinternet
 

 
Показать сообщения:    


Вы не можете начинать темы
Вы не можете отвечать на сообщения
Вы не можете редактировать свои сообщения
Вы не можете удалять свои сообщения
Вы не можете голосовать в опросах
Вы не можете прикреплять файлы к сообщениям
Вы можете скачивать файлы