Loading...
Error

Скачать Каникулы на ранчо / Horse Sense (Грег Биман) [1999, драма, семейный, VHSRip] [MVO] торрент без регистрации

 
Статистика раздачи
Размер:  1,26 GB   |    Скачан:  5 раз
Сидов:  1  [  0 KB/s  ]  
 
Автор Сообщение

Marsianka

[] 

Информация о фильме
Название: Каникулы на ранчо
Оригинальное название: Horse Sense
Год выхода: 1999
Жанр: драма, семейный
Режиссер: Грег Биман
В ролях: Джозеф Лоуренс, Эндрю Лоуренс, Сьюзэн Уолтерс, М. К. Гейни, Лиэнн Ханли, Робин Томас, Джоли Дженкинс, Стив Ривис, Фреда Фо Шен, Иан Огилви

О фильме:
Майкл отвратительно вел себя со своим кузеном Томом, пока тот гостил у его родителей в Лос-Анджелесе. Настало время ответного визита и родители Майкла отправили своего избалованного сынка на летние каникулы в Монтану, на ферму.
Майкл вынужден терпеть издевательства Тома, который отчаянно мстит своему отвратительному братцу. Майклу не терпится вернуться домой, но совершенно случайно он узнает, что Томи и его мама могут лишиться своей фермы.
Они слишком горды, чтобы принять его финансовую помощь. Майклу придется принять весьма непростое решение…



Производство: США / Hal Roach Studios Inc.
Продолжительность: 01:28:43
Перевод: профессиональный (многоголосый закадровый) [Селена Интернешнл]

Файл
Качество: VHSRip
Формат: AVI
Видео: XviD, 640x480 (4:3), 25.000 fps, 1899 kbps, 0.247 bit/pixel
Аудио: русский, AC3 2.0, 48 kHz, 128 kbps
Формат : AVI
Формат/Информация : Audio Video Interleave
Размер файла : 1,26 Гбайт
Продолжительность : 1 ч. 28 м.
Общий поток : 2037 Кбит/сек
Программа кодирования : VirtualDubMod 1.5.10.2 (build 2540/release)
Библиотека кодирования : VirtualDubMod build 2540/release

Видео
Идентификатор : 0
Формат : MPEG-4 Visual
Профиль формата : Advanced Simple@L5
Параметр BVOP формата : 2
Параметр QPel формата : Нет
Параметр GMC формата : Без точки перехода
Параметр матрицы формата : Default (H.263)
Идентификатор кодека : XVID
Идентификатор кодека/Подсказка : XviD
Продолжительность : 1 ч. 28 м.
Битрейт : 1899 Кбит/сек
Ширина : 640 пикселей
Высота : 480 пикселей
Соотношение сторон : 4:3
Частота кадров : 25,000 кадров/сек
Цветовое пространство : YUV
Субдискретизация насыщенности : 4:2:0
Битовая глубина : 8 бит
Тип развёртки : Прогрессивная
Метод сжатия : С потерями
Бит/(Пиксели*Кадры) : 0.247
Размер потока : 1,18 Гбайт (93%)
Библиотека кодирования : XviD 1.2.1 (UTC 2008-12-04)

Аудио
Идентификатор : 1
Формат : AC-3
Формат/Информация : Audio Coding 3
Расширение режима : CM (complete main)
Параметр Endianness формата : Big
Идентификатор кодека : 2000
Продолжительность : 1 ч. 28 м.
Вид битрейта : Постоянный
Битрейт : 128 Кбит/сек
Каналы : 2 канала
Расположение каналов : Front: L R
Частота : 48,0 КГц
Метод сжатия : С потерями
Размер потока : 81,2 Мбайт (6%)
Выравнивание : Соединение по промежуткам
Продолжительность промежутка : 40 мс. (1,00 видеокадр)
Время предзагрузки промежутка : 512 мс.
Релиз: оцифровка VHS от novikov79



Скачать Каникулы.на.ранчо.Horse.Sense.(Грег.Биман).[1999.драма.семейный.VHSRip].[MVO].torrent без регистрации
Золото ЗОЛОТАЯ РАЗДАЧА! СКАЧАННОЕ НЕ ЗАСЧИТЫВАЕТСЯ! Золото
Дата: Зарегистрирован   [ Тип: внутренний ] Как тут cкачать?
MAGNET ссылка
MAGNET ссылка


Скачать .torrent

13 KB

Статус: проверено DHT
Скачан: торрент - 5 раз, раздача полностью - 1 раз
Размер: 1,26 GB
Оценка:  - (Голосов: 0)
Поблагодарили: 0
Поделиться ссылкой на эту раздачу с друзьями:
В контактеFacebookОдноклассникиTwitterLivejournalМой МирLiveinternet
 

 
Показать сообщения:    


Вы не можете начинать темы
Вы не можете отвечать на сообщения
Вы не можете редактировать свои сообщения
Вы не можете удалять свои сообщения
Вы не можете голосовать в опросах
Вы не можете прикреплять файлы к сообщениям
Вы можете скачивать файлы