Loading...
Error

Скачать Через Париж / La traversee de Paris (Клод Отан-Лара) [1956, комедия, BDRip-AVC] [MVO (Пифагор)] торрент без регистрации

 
Статистика раздачи
Размер:  1,19 GB   |    Скачан:  12 раз
Сидов:  1  [  0 KB/s  ]  
 
Автор Сообщение

Marsianka

[] 

Через Париж / La traversee de Paris (1956) BDRip-AVC | iPhone | P


Название: Через Париж
Оригинальное название: La traversee de Paris
Год выхода: 1956
Жанр: комедия
Режиссер: Клод Отан-Лара
В ролях: Жан Габен, Бурвиль, Жаннетта Батти, Жоржетт Анис, Роберт Арну, Луи де Фюнес, Лоранс Бади, Мино Берни, Жермэн Дельба, Монетт Дин

О фильме:
Безработный шофер Мартен подрядился перетащить два чемодана контрабандной свинины через ночной Париж. Ему очень нужны деньги, и он берётся за такое рискованное дело не в первый раз. В помощники к нему навязывается Гранжиль, преуспевающий художник, идущий на авантюру лишь ради новых острых ощущений. Много приключений выпадет на долю случайных партнёров, пока они не попадут в руки ночного патруля немцев. А за нарушение комендантского часа у гестапо наказание одно - расстрел


Страна: Франция, Италия
Студия: Continental Produzione, Franco London Films

Продолжительность: 01:23:14
Перевод: Русский профессиональный многоголосый закадровый

Файл
Кодек: H.264
Качество: BDRip-AVC 480p iPhone
Видео: 640x480 (4:3) at 24.000 fps, AVC at 1900 kbps

1: 48 kHz, AAC 2.0, 150 kbps - Русский профессиональный многоголосый закадровый (Пифагор)
Субтитры: Отсутствуют

General
Complete name : C:CREATE480outLa traversee de Paris.1956 (SD).m4v
Format : MPEG-4
Codec ID : M4V
File size : 1.19 GiB
Duration : 1h 23mn
Overall bit rate mode : Variable
Overall bit rate : 2 055 Kbps
Movie name : Через Париж
Performer : Клод Отан-Лара
Genre : Comedy
Recorded date : UTC 1956-10-26 08:00:00
Encoded date : UTC 2014-02-20 19:02:54
Tagged date : UTC 2014-02-20 19:19:38
Copyright : Continental Produzione, Franco London Films
Cover : Yes
sonm : La Traversée de Paris
desc : Безработный шофер Мартен подрядился перетащить два чемодана контрабандной свинины через ночной Париж. Ему очень нужны деньги, и он берётся за такое рискованное дело не в первый раз.
ldes : Безработный шофер Мартен подрядился перетащить два чемодана контрабандной свинины через ночной Париж. Ему очень нужны деньги, и он берётся за такое рискованное дело не в первый раз. В помощники к нему навязывается Гранжиль, преуспевающий художник, идущий на авантюру лишь ради новых острых ощущений. Много приключений выпадет на долю случайных партнёров, пока они не попадут в руки ночного патруля немцев. А за нарушение комендантского часа у гестапо наказание одно — расстрел.
stik : 9
rtng : 0
cnID : 96148
xid : Apple:vendor_id:1956-96148
iTunEXTC : mpaa|NR|000|

Video #1
ID : 1
Format : AVC
Format/Info : Advanced Video Codec
Format profile : Baseline@L3.0
Format settings, CABAC : No
Format settings, ReFrames : 2 frames
Codec ID : avc1
Codec ID/Info : Advanced Video Coding
Duration : 1h 23mn
Bit rate : 1 900 Kbps
Maximum bit rate : 5 584 Kbps
Width : 640 pixels
Height : 480 pixels
Display aspect ratio : 4:3
Frame rate mode : Constant
Frame rate : 24.000 fps
Color space : YUV
Chroma subsampling : 4:2:0
Bit depth : 8 bits
Scan type : Progressive
Bits/(Pixel*Frame) : 0.258
Stream size : 1.10 GiB (92%)
Title : La traversee de Paris _1956_
Writing library : x264 core 140 r2377+40 929f149 tMod [8-bit@4:2:0 X86_64]
Encoding settings : cabac=0 / ref=2 / deblock=1:-2:-2 / analyse=0x1:0x131 / me=umh / subme=7 / psy=1 / fade_compensate=0.10 / psy_rd=1.00:0.10 / mixed_ref=1 / me_range=64 / chroma_me=0 / trellis=2 / 8x8dct=0 / cqm=0 / deadzone=21,11 / fast_pskip=0 / chroma_qp_offset=-3 / threads=12 / lookahead_threads=2 / sliced_threads=0 / nr=0 / decimate=0 / interlaced=0 / bluray_compat=0 / constrained_intra=0 / fgo=0 / bframes=0 / weightp=0 / keyint=250 / keyint_min=24 / scenecut=40 / intra_refresh=0 / rc_lookahead=120 / rc=2pass / mbtree=1 / bitrate=1900 / ratetol=1.0 / qcomp=0.60 / qpmin=0:0:0 / qpmax=69:69:69 / qpstep=4 / cplxblur=20.0 / qblur=0.5 / vbv_maxrate=5000 / vbv_bufsize=5000 / nal_hrd=none / filler=0 / ip_ratio=1.30 / aq=4:0.90 / aq-sensitivity=10.00 / aq-factor=1.00:1.00:1.00 / aq2=0 / aq3=0
Language : French
Encoded date : UTC 2014-02-20 19:02:54
Tagged date : UTC 2014-02-20 19:03:23
Matrix coefficients : BT.709

Video #2
ID : 5
Format : JPEG
Codec ID : jpeg
Duration : 1h 23mn
Bit rate mode : Variable
Bit rate : 868 bps
Width : 640 pixels
Height : 480 pixels
Display aspect ratio : 4:3
Frame rate mode : Variable
Frame rate : 0.002 fps
Minimum frame rate : 0.001 fps
Maximum frame rate : 0.005 fps
Color space : YUV
Chroma subsampling : 4:2:0
Bit depth : 8 bits
Compression mode : Lossy
Bits/(Pixel*Frame) : 1.413
Stream size : 636 KiB (0%)
Language : French
Encoded date : UTC 2014-02-20 19:19:36
Tagged date : UTC 2014-02-20 19:19:36

Audio
ID : 2
Format : AAC
Format/Info : Advanced Audio Codec
Format profile : LC
Codec ID : 40
Duration : 1h 23mn
Bit rate mode : Variable
Bit rate : 151 Kbps
Maximum bit rate : 165 Kbps
Channel(s) : 1 channel
Channel positions : Front: C
Sampling rate : 48.0 KHz
Compression mode : Lossy
Stream size : 89.8 MiB (7%)
Title : MVO _Pifagor_
Language : Russian
Encoded date : UTC 2014-02-20 19:03:16
Tagged date : UTC 2014-02-20 19:03:23

Menu
ID : 4
Codec ID : text
Duration : 1h 23mn
Language : French
Encoded date : UTC 2014-02-20 19:04:19
Tagged date : UTC 2014-02-20 19:04:19
Bit rate mode : CBR

Sort Name: La Traversée de Paris
XID: Apple:vendor_id:1956-96148
contentID: 96148
Copyright: Continental Produzione, Franco London Films
Screenwriters: Жан Оранш, Пьер Бост, Марсель Эме
Producers: Генри Дойчмайстер
Director: Claude Autant-Lara
Cast: Jean Gabin (Grandgil), Bourvil (Marcel Martin), Jeannette Batti (Mariette Martin), Louis de Funès (Jambier)
Studio: Continental Produzione, Franco London Films
Rating: 1
Long Deion: Безработный шофер Мартен подрядился перетащить два чемодана контрабандной свинины через ночной Париж. Ему очень нужны деньги, и он берётся за такое рискованное дело не в первый раз. В помощники к нему навязывается Гранжиль, преуспевающий художник, идущий на авантюру лишь ради новых острых ощущений. Много приключений выпадет на долю случайных партнёров, пока они не попадут в руки ночного патруля немцев. А за нарушение комендантского часа у гестапо наказание одно — расстрел.
Deion: Безработный шофер Мартен подрядился перетащить два чемодана контрабандной свинины через ночной Париж. Ему очень нужны деньги, и он берётся за такое рискованное дело не в первый раз.
Release Date: 1956-10-26T08:00:00Z
Genre: Comedy
Artist: Клод Отан-Лара
Name: Через Париж

x264 [info]: frame I:1340 Avg QP:19.68 size: 25405
x264 [info]: frame P:118516 Avg QP:24.71 size: 9722
x264 [info]: mb I I16..4: 49.8% 0.0% 50.2%
x264 [info]: mb P I16..4: 0.7% 0.0% 0.8% P16..4: 48.5% 17.6% 8.4% 1.5% 0.7% skip:21.9%
x264 [info]: coded y,uvDC,uvAC intra: 52.3% 2.0% 0.0% inter: 42.5% 0.4% 0.0%
x264 [info]: i16 v,h,dc,p: 65% 13% 10% 13%
x264 [info]: i4 v,h,dc,ddl,ddr,vr,hd,vl,hu: 24% 14% 18% 7% 8% 9% 8% 7% 6%
x264 [info]: i8c dc,h,v,p: 97% 1% 1% 0%
x264 [info]: ref P L0: 71.0% 29.0%
x264 [info]: kb/s:1900.31



Скачать Через.Париж.La.traversee.de.Paris.(Клод.Отан-Лара).[1956.комедия.BDRip-AVC].[MVO.(Пифагор)].torrent без регистрации
Золото ЗОЛОТАЯ РАЗДАЧА! СКАЧАННОЕ НЕ ЗАСЧИТЫВАЕТСЯ! Золото
Дата: Зарегистрирован   [ Тип: внутренний ] Как тут cкачать?
MAGNET ссылка
MAGNET ссылка


Скачать .torrent

13 KB

Статус: проверено DHT
Скачан: торрент - 12 раз, раздача полностью - 0 раз
Размер: 1,19 GB
Оценка:  - (Голосов: 0)
Поблагодарили: 1
Поделиться ссылкой на эту раздачу с друзьями:
В контактеFacebookОдноклассникиTwitterLivejournalМой МирLiveinternet
 

 
Показать сообщения:    


Вы не можете начинать темы
Вы не можете отвечать на сообщения
Вы не можете редактировать свои сообщения
Вы не можете удалять свои сообщения
Вы не можете голосовать в опросах
Вы не можете прикреплять файлы к сообщениям
Вы можете скачивать файлы