Loading...
Error

Скачать Мистер Робот / Mr. Robot (Сезон 02, серии 01-04 из 12) (Нильс Арден Оплев) [2016, драма, криминал, WEBRip] [MVO] (FocusStudio) торрент без регистрации

 
Статистика раздачи
Размер:  2,76 GB   |    Скачан:  55 раз
Сидов:  1  [  0 KB/s  ]  
 
Автор Сообщение

leon030982

[] 



✧ Мистер Робот ✧



✦ Год выхода: 2016
✦ Жанр: драма, криминал
✦ Страна: США
✦ Продолжительность: ~ 00:45:00 серия
✦ Перевод: Профессиональный (многоголосый, закадровый) - FocusStudio
✦ Субтитры: отсутствуют

✦ Режиссер: Нильс Арден Оплев

✦ В ролях: Рами Малек, Кристиан Слэйтер, Брюс Олтмен, Майкл Бушеми, Карли Чаикин, Самрат Чакрабарти, Портия Даблдэй, Маурицио Ферриньо, Майкл Гилл, Джереми С. Холм, Диллон Мэтьюз

Описание фильма:
История молодого программиста Эллиота, страдающего диссоциальным расстройством личности и решившего, что единственный приемлемый для него способ взаимодействия с людьми - это профессия хакера. Таким образом, он быстро оказывается в том самом месте, где пересекаются интересы его работодателя - фирмы, занимающейся кибербезопасностью, - и подпольных организаций, которые пытаются его завербовать с целью обрушения самых могучих американских корпораций.


Релиз от --

Информация о файле:
✦ Качество: WEBRip
✦ Формат: AVI
✦ Видео: 720x400 (1.80:1), 23.976 fps, XviD ~1400 kbps avg, 0.203 bit/pixel
✦ Аудио : MP3, 48.0 KHz, 2 ch, 128 kbps [MVO]
✦ Аудио : MP3, 48.0 KHz, 2 ch, 128 kbps [ENG]

Добавлена 4-я серия!

Код:

Format : AVI
Format/Info : Audio Video Interleave
File size : 521 MiB
Duration : 40mn 57s
Overall bit rate : 1 778 Kbps
Writing application : VirtualDubMod 1.5.10.3 | www.virtualdub-fr.org || (build 2550/release)
Writing library : VirtualDubMod build 2550/release
Video
ID : 0
Format : MPEG-4 Visual
Format profile : Advanced Simple@L5
Format settings, BVOP : 1
Format settings, QPel : No
Format settings, GMC : No warppoints
Format settings, Matrix : Default (MPEG)
Codec ID : XVID
Codec ID/Hint : XviD
Duration : 40mn 57s
Bit rate : 1 508 Kbps
Width : 720 pixels
Height : 400 pixels
Display aspect ratio : 16:9
Frame rate : 23.976 (23976/1000) fps
Color space : YUV
Chroma subsampling : 4:2:0
Bit depth : 8 bits
Scan type : Progressive
Compression mode : Lossy
Bits/(Pixel*Frame) : 0.218
Stream size : 442 MiB (85%)
Writing library : XviD 1.2.1 (UTC 2008-12-04)
Audio #1
ID : 1
Format : MPEG Audio
Format version : Version 1
Format profile : Layer 3
Mode : Joint stereo
Mode extension : MS Stereo
Codec ID : 55
Codec ID/Hint : MP3
Duration : 40mn 57s
Bit rate mode : Constant
Bit rate : 128 Kbps
Channel(s) : 2 channels
Sampling rate : 48.0 KHz
Compression mode : Lossy
Stream size : 37.5 MiB (7%)
Alignment : Aligned on interleaves
Interleave, duration : 42 ms (1.00 video frame)
Interleave, preload duration : 504 ms
Title : Russian
Audio #2
ID : 2
Format : MPEG Audio
Format version : Version 1
Format profile : Layer 3
Mode : Joint stereo
Mode extension : MS Stereo
Codec ID : 55
Codec ID/Hint : MP3
Duration : 40mn 57s
Bit rate mode : Constant
Bit rate : 128 Kbps
Channel(s) : 2 channels
Sampling rate : 48.0 KHz
Compression mode : Lossy
Stream size : 37.5 MiB (7%)
Alignment : Aligned on interleaves
Interleave, duration : 42 ms (1.00 video frame)
Interleave, preload duration : 504 ms
Title : English
Когда раздача ведётся путём добавления новых серий, при каждом добавлении создётся новый торрент. Чтобы начать докачку новой серии, пользователям необходимо сделать следующее:
(1) остановить скачивание,
(2) удалить старый торрент у себя из клиента (старые серии удалять не надо),
(3) скачать новый торрент и запустить его у себя в клиенте вместо старого, при этом указать клиенту путь в старую папку, куда и должно происходить скачивание новых серий.
Ваш клиент при этом должен произвести хеширование (проверку) старой папки (если не производит сам - помогите ему сделать это), и будет докачивать только те серии, которых у вас ещё нет. Старые серии при этом не удаляются, а продолжают раздаваться!
Eсли вы уже удалили старые серии, то предотвратить повторную закачку старых серий можно, отжав галочку в соответсвующих местах при запуске нового торрента. По возможности, желательно не удалять старые серии как можно дольше, чтобы релизёр не столько продолжал раздавать старые серии, а смог сконцентрироваться на новых.



Скачать Мистер.Робот.Mr.Robot.(Сезон.02.серии.01-04.из.12).(Нильс.Арден.Оплев).[2016.драма.криминал.WEBRip].[MVO].(FocusStudio).torrent без регистрации
Золото ЗОЛОТАЯ РАЗДАЧА! СКАЧАННОЕ НЕ ЗАСЧИТЫВАЕТСЯ! Золото
Дата: Зарегистрирован   [ Тип: внутренний ] Как тут cкачать?
MAGNET ссылка
MAGNET ссылка


Скачать .torrent

28 KB

Статус: проверено DHT
Скачан: торрент - 55 раз, раздача полностью - 3 раз
Размер: 2,76 GB
Оценка:  - (Голосов: 0)
Поблагодарили: 0
Поделиться ссылкой на эту раздачу с друзьями:
В контактеFacebookОдноклассникиTwitterLivejournalМой МирLiveinternet
 

 
Показать сообщения:    


Вы не можете начинать темы
Вы не можете отвечать на сообщения
Вы не можете редактировать свои сообщения
Вы не можете удалять свои сообщения
Вы не можете голосовать в опросах
Вы не можете прикреплять файлы к сообщениям
Вы можете скачивать файлы