Loading...
Error

Скачать Фламандская доска / Uncovered (Джим МакБрайд) [1994, триллер, DVDRip-AVC] 2x[DVO]+[Eng]+[Sub Eng] торрент без регистрации

 
Статистика раздачи
Размер:  2,58 GB   |    Скачан:  14 раз
Сидов:  1  [  0 KB/s  ]  
 
Автор Сообщение

МихаНЕзатор

[] 

Название: Фламандская доска
Оригинальное название: Uncovered
Год выхода: 1994
Жанр: триллер, ...
Режиссер: Джим МакБрайд

В ролях: Кейт Бекинсейл, Джон Вуд, Шинед Кьюсак, Подж Биэн, Питер Уингфилд, Хелен МакКрори, Майкл Гоф, Арт Малик, Энтони Милнер, Джеймс Виллерс, ...

О фильме: Джулия реставрирует к аукциону старинную картину, принадлежащую древнему, но обедневшему аристократическому роду. На шедевре кисти фламандского художника 15-го века изображены погруженная в думы женщина и двое играющих в шахматы мужчин.
Казалось бы, ничего необычного — но только на первый взгляд. Под слоями краски в свете рентгеновских лучей Джулия обнаруживает надпись на латыни, оказавшуюся ключом к разгадке преступления, совершенного в те далекие времена.
Но когда убивают друга Джулии, она понимает, что каким-то загадочным образом кровавая ниточка тянется к реставрируемой картине. И цепь новых убийств связана с расстановкой шахматных фигур на нарисованной доске…



Страна: Великобритания, Испания, Франция
Студия: CiBy 2000
Продолжительность: 01:42:29
Перевод:
- Профессиональный (двуголосый, закадровый)
- Профессиональный (двуголосый, закадровый) НТВ+ (Ольга Голованова и Михаил Тихонов)

Кодек: x264
Качество: DVDRip-AVC
Видео: 720x540, 3000 kbps, 23,976 fps
Аудио #1: AC-3, 2 ch, 224 kbps (Rus) - DVO
Аудио #2: AC-3, 2 ch, 192 kbps (Rus) - DVO НТВ+
Аудио #3: AC-3, 2 ch, 192 kbps (Eng)
Субтитры: Английские

АНОНСЫ ПОПУЛЯРНЫХ РАЗДАЧ
За исходник спасибо - eop

x264 [info]: frame I:1161 Avg QP:13.22 size: 59203
x264 [info]: frame P:33412 Avg QP:15.47 size: 28048
x264 [info]: frame B:112871 Avg QP:17.63 size: 11517
x264 [info]: consecutive B-frames: 1.4% 1.8% 7.4% 35.2% 30.0% 19.2% 2.8% 1.0% 0.4% 0.5% 0.1% 0.0% 0.1%

Общее
Уникальный идентификатор : 222317112199579156908580901033153475342 (0xA740B7E6039C119CBDF49EBC4DF5330E)
Полное имя : Фламандская доска (Uncovered) 1994,DVDRip.mkv
Формат : Matroska
Версия формата : Version 2
Размер файла : 2,58 Гбайт
Продолжительность : 1 ч. 42 м.
Общий поток : 3610 Кбит/сек
Дата кодирования : UTC 2016-07-12 19:29:43
Программа кодирования : mkvmerge v4.0.0 ('The Stars were mine') сборка от Jun 6 2010 16:18:42
Библиотека кодирования : libebml v1.0.0 + libmatroska v1.0.0

Видео
Идентификатор : 1
Формат : AVC
Формат/Информация : Advanced Video Codec
Профиль формата : High@L4.1
Параметр CABAC формата : Да
Параметр ReFrames формата : 12 кадров
Идентификатор кодека : V_MPEG4/ISO/AVC
Продолжительность : 1 ч. 42 м.
Битрейт : 3000 Кбит/сек
Ширина : 720 пикселей
Высота : 540 пикселей
Соотношение сторон : 4:3
Режим частоты кадров : Постоянный
Частота кадров : 23,976 (24000/1001) кадра/сек
Цветовое пространство : YUV
Субдискретизация насыщенности : 4:2:0
Битовая глубина : 8 бит
Тип развёртки : Прогрессивная
Бит/(Пиксели*Кадры) : 0.322
Размер потока : 2,10 Гбайт (81%)
Библиотека кодирования : x264 core 146 r2538 121396c
Настройки программы : cabac=1 / ref=12 / deblock=1:-3:-3 / analyse=0x3:0x133 / me=umh / subme=11 / psy=1 / psy_rd=1.00:0.00 / mixed_ref=1 / me_range=32 / chroma_me=1 / trellis=2 / 8x8dct=1 / cqm=0 / deadzone=21,11 / fast_pskip=0 / chroma_qp_offset=-2 / threads=12 / lookahead_threads=2 / sliced_threads=0 / nr=0 / decimate=0 / interlaced=0 / bluray_compat=0 / constrained_intra=0 / bframes=12 / b_pyramid=2 / b_adapt=2 / b_bias=0 / direct=3 / weightb=1 / open_gop=0 / weightp=2 / keyint=240 / keyint_min=23 / scenecut=40 / intra_refresh=0 / rc=2pass / mbtree=0 / bitrate=3000 / ratetol=1.0 / qcomp=0.60 / qpmin=0 / qpmax=69 / qpstep=4 / cplxblur=20.0 / qblur=0.5 / ip_ratio=1.40 / pb_ratio=1.30 / aq=1:0.80
Язык : English
Default : Нет
Forced : Нет

Аудио #1
Идентификатор : 2
Формат : AC-3
Формат/Информация : Audio Coding 3
Расширение режима : CM (complete main)
Параметр Endianness формата : Big
Идентификатор кодека : A_AC3
Продолжительность : 1 ч. 42 м.
Вид битрейта : Постоянный
Битрейт : 224 Кбит/сек
Каналы : 2 канала
Расположение каналов : Front: L R
Частота : 48,0 КГц
Частота кадров : 31,250 кадров/сек (1536 spf)
Метод сжатия : С потерями
Размер потока : 164 Мбайт (6%)
Заголовок : DVO
Язык : Russian
Default : Нет
Forced : Нет

Аудио #2
Идентификатор : 3
Формат : AC-3
Формат/Информация : Audio Coding 3
Расширение режима : CM (complete main)
Параметр Endianness формата : Big
Идентификатор кодека : A_AC3
Продолжительность : 1 ч. 42 м.
Вид битрейта : Постоянный
Битрейт : 192 Кбит/сек
Каналы : 2 канала
Расположение каналов : Front: L R
Частота : 48,0 КГц
Частота кадров : 31,250 кадров/сек (1536 spf)
Метод сжатия : С потерями
Размер потока : 141 Мбайт (5%)
Заголовок : DVO НТВ+ (Ольга Голованова и Михаил Тихонов)
Язык : Russian
Default : Нет
Forced : Нет

Аудио #3
Идентификатор : 4
Формат : AC-3
Формат/Информация : Audio Coding 3
Расширение режима : CM (complete main)
Параметр Endianness формата : Big
Идентификатор кодека : A_AC3
Продолжительность : 1 ч. 42 м.
Вид битрейта : Постоянный
Битрейт : 192 Кбит/сек
Каналы : 2 канала
Расположение каналов : Front: L R
Частота : 48,0 КГц
Частота кадров : 31,250 кадров/сек (1536 spf)
Метод сжатия : С потерями
Размер потока : 141 Мбайт (5%)
Язык : English
Default : Нет
Forced : Нет

Текст
Идентификатор : 5
Формат : UTF-8
Идентификатор кодека : S_TEXT/UTF8
Идентификатор кодека/Информация : UTF-8 Plain Text
Заголовок : SDH
Язык : English
Default : Нет
Forced : Нет



Скачать Фламандская.доска.Uncovered.(Джим.МакБрайд).[1994.триллер.DVDRip-AVC].2x[DVO]+[Eng]+[Sub.Eng].torrent без регистрации
Золото ЗОЛОТАЯ РАЗДАЧА! СКАЧАННОЕ НЕ ЗАСЧИТЫВАЕТСЯ! Золото
Дата: Зарегистрирован   [ Тип: внутренний ] Как тут cкачать?
MAGNET ссылка
MAGNET ссылка


Скачать .torrent

14 KB

Статус: проверено DHT
Скачан: торрент - 14 раз, раздача полностью - 8 раз
Размер: 2,58 GB
Оценка:  - (Голосов: 0)
Поблагодарили: 0
Поделиться ссылкой на эту раздачу с друзьями:
В контактеFacebookОдноклассникиTwitterLivejournalМой МирLiveinternet
 

 
Показать сообщения:    


Вы не можете начинать темы
Вы не можете отвечать на сообщения
Вы не можете редактировать свои сообщения
Вы не можете удалять свои сообщения
Вы не можете голосовать в опросах
Вы не можете прикреплять файлы к сообщениям
Вы можете скачивать файлы