Loading...
Error

Скачать Теория Большого Взрыва / The Big Bang Theory (Сезон 6) (Марк Сендроуски, Питер Чакос) [2012-2013, Комедия, BDRip 720p] [VO (Кураж-Бамбей) + Original + Subs (Rus, Eng) + Bonus] торрент без регистрации

 
Статистика раздачи
Размер:  25,34 GB   |    Скачан:  9 раз
Сидов:  1  [  0 KB/s  ]  
 
Автор Сообщение

Shara

[] 


Теория Большого Взрыва / The Big Bang Theory

Год выпуска: 2012-2013
Страна: США
Жанр: Комедия
Продолжительность: ~ 00:22:00
Перевод: Профессиональный (одноголосый закадровый) - Кураж-Бамбей
Режиссёр: Марк Сендроуски, Питер Чакос
В ролях: Джим Парсонс / Jim Parsons (Sheldon), Джонни Галекки / Johnny Galecki (Leonard), Кейли Куоко / Kaley Cuoco (Penny), Саймон Хельберг / Simon Helberg (Howard Wolowitz), Кунал Найяр / Kunal Nayyar (Rajesh Koothrappali) и др.
Описание: Два блестящих физика, Леонард и Шелдон, «великие умы», которые понимают как «работает вселенная». Но их гениальность ничуть не помогает им общаться с людьми, особенно с женщинами. Всё начинает меняться, когда напротив них поселяется красавица Пенни.
Когда Леонард и Шелдон встречают Пенни, Леонард сразу же начинает интересоваться ею. Он видит в общении с Пенни огромную перспективу… вплоть до любви, однако Шелдон понимает, что мечтам его друга не суждено сбыться.
Стоит также отметить пару странных друзей этих физиков: Воловиц, который любит употреблять фразы на разных языках, включая русский, и Раджеш Кутраппали, теряющий дар речи при виде женщин.
Релиз : Автор Раздачи - АКТЕР aka CEBEPu2D
Рип от DON
Работа со звуком: АКТЕР aka CEBEPu2D, Flest_rus
Сохранены оригинальные главы как на Blu-ray.


Качество: BDRip 720p
Формат: MKV
Видео: H.264, 1280x720, 23.976 fps, ~5200 kbps, ~0.233 bit/pixel
Аудио Rus: AC3, 48 kHz, 6 ch, 384 kbps |Кураж-Бамбей|
Аудио Eng: AC3, 48 kHz, 6 ch, 640 kbps |Original|
Субтитры: Русские (Суверенный Лепрозорий), Английские
01. The Date Night Variable
02. The Decoupling Fluctuation
03. The Higgs Boson Observation
04. The Re-Entry Minimization
05. The Holographic Excitation
06. The Extract Obliteration
07. The Habitation Configuration
08. The 43 Peculiarity
09. The Parking Spot Escalation
10. The Fish Guts Displacement
11. The Santa Simulation
12. The Egg Salad Equivalency
13. The Bakersfield Expedition
14. The Cooper/Kripke Inversion
15. The Spoiler Alert Segmentation
16. The Tangible Affection Proof
17. The Monster Isolation
18. The Contractual Obligation Implementation
19. The Closet Reconfiguration
20. The Tenure Turbulence
21. The Closure Alternative
22. The Proton Resurgence
23. The Love Spell Potential
24. The Bon Voyage Reaction
Полное имя : E:\Loading\The.Big.Bang.Theory.S06.Bdrip.720p.by.AKTEP\The.Big.Bang.Theory.S06E01.Bdrip.720p.by.AKTEP.mkv
Формат : Matroska
Версия формата : Version 4 / Version 2
Размер файла : 957 Мбайт
Продолжительность : 21 м.
Общий поток : 6307 Кбит/сек
Дата кодирования : UTC 2015-03-28 11:37:48
Программа кодирования : mkvmerge v6.2.0 ('Promised Land') built on Apr 28 2013 12:22:01
Библиотека кодирования : libebml v1.3.0 + libmatroska v1.4.0
Видео
Идентификатор : 1
Формат : AVC
Формат/Информация : Advanced Video Codec
Профиль формата : High@L4.1
Параметр CABAC формата : Да
Параметр ReFrames формата : 9 кадров
Идентификатор кодека : V_MPEG4/ISO/AVC
Продолжительность : 21 м.
Битрейт : 5158 Кбит/сек
Ширина : 1280 пикселей
Высота : 720 пикселей
Соотношение сторон : 16:9
Режим частоты кадров : Постоянный
Частота кадров : 23,976 кадра/сек
Цветовое пространство : YUV
Субдискретизация насыщенности : 4:2:0
Битовая глубина : 8 бит
Тип развёртки : Прогрессивная
Бит/(Пиксели*Кадры) : 0.233
Размер потока : 782 Мбайт (82%)
Заголовок : by AKTEP
Библиотека кодирования : x264 core 116 r2057 0ba8a9c
Настройки программы : cabac=1 / ref=9 / deblock=1:-3:-3 / analyse=0x3:0x133 / me=umh / subme=10 / psy=1 / psy_rd=1.00:0.00 / mixed_ref=1 / me_range=32 / chroma_me=1 / trellis=2 / 8x8dct=1 / cqm=0 / deadzone=21,11 / fast_pskip=0 / chroma_qp_offset=-2 / threads=18 / sliced_threads=0 / nr=0 / decimate=0 / interlaced=0 / bluray_compat=0 / constrained_intra=0 / bframes=7 / b_pyramid=2 / b_adapt=2 / b_bias=0 / direct=3 / weightb=1 / open_gop=0 / weightp=2 / keyint=250 / keyint_min=23 / scenecut=40 / intra_refresh=0 / rc_lookahead=40 / rc=crf / mbtree=0 / crf=16.5 / qcomp=0.65 / qpmin=0 / qpmax=40 / qpstep=4 / vbv_maxrate=50000 / vbv_bufsize=50000 / crf_max=0.0 / nal_hrd=none / ip_ratio=1.25 / pb_ratio=1.25 / aq=1:0.60
Язык : English
Default : Да
Forced : Нет
Аудио #1
Идентификатор : 2
Формат : AC-3
Формат/Информация : Audio Coding 3
Расширение режима : CM (complete main)
Параметр Endianness формата : Big
Идентификатор кодека : A_AC3
Продолжительность : 21 м.
Вид битрейта : Постоянный
Битрейт : 384 Кбит/сек
Каналы : 6 каналов
Расположение каналов : Front: L C R, Side: L R, LFE
Частота : 48,0 КГц
Битовая глубина : 16 бит
Метод сжатия : С потерями
Размер потока : 58,2 Мбайт (6%)
Язык : Russian
Default : Да
Forced : Нет
Аудио #2
Идентификатор : 3
Формат : AC-3
Формат/Информация : Audio Coding 3
Расширение режима : CM (complete main)
Параметр Endianness формата : Big
Идентификатор кодека : A_AC3
Продолжительность : 21 м.
Вид битрейта : Постоянный
Битрейт : 640 Кбит/сек
Каналы : 6 каналов
Расположение каналов : Front: L C R, Side: L R, LFE
Частота : 48,0 КГц
Битовая глубина : 16 бит
Метод сжатия : С потерями
Размер потока : 97,1 Мбайт (10%)
Язык : English
Default : Нет
Forced : Нет
Текст #1
Идентификатор : 4
Формат : UTF-8
Идентификатор кодека : S_TEXT/UTF8
Идентификатор кодека/Информация : UTF-8 Plain Text
Язык : Russian
Default : Нет
Forced : Нет
Текст #2
Идентификатор : 5
Формат : UTF-8
Идентификатор кодека : S_TEXT/UTF8
Идентификатор кодека/Информация : UTF-8 Plain Text
Язык : English
Default : Нет
Forced : Нет
Меню
00:00:00.000 : en:00:00:00.000
00:00:17.726 : en:00:00:17.726
00:02:43.163 : en:00:02:43.163
00:09:04.377 : en:00:09:04.377
00:19:46.811 : en:00:19:46.811
00:20:43.242 : en:00:20:43.242



Скачать Теория.Большого.Взрыва.The.Big.Bang.Theory.(Сезон.6).(Марк.Сендроуски.Питер.Чакос).[2012-2013.Комедия.BDRip.720p].[VO.(Кураж-Бамбей).+.Original.+.Subs.(Rus.Eng).+.Bonus].torrent без регистрации
Золото ЗОЛОТАЯ РАЗДАЧА! СКАЧАННОЕ НЕ ЗАСЧИТЫВАЕТСЯ! Золото
Дата: Зарегистрирован   [ Тип: внутренний ] Как тут cкачать?
MAGNET ссылка
MAGNET ссылка


Скачать .torrent

36 KB

Статус: проверено DHT
Скачан: торрент - 9 раз, раздача полностью - 3 раз
Размер: 25,34 GB
Оценка:  - (Голосов: 0)
Поблагодарили: 0
Поделиться ссылкой на эту раздачу с друзьями:
В контактеFacebookОдноклассникиTwitterLivejournalМой МирLiveinternet
 

 
Показать сообщения:    


Вы не можете начинать темы
Вы не можете отвечать на сообщения
Вы не можете редактировать свои сообщения
Вы не можете удалять свои сообщения
Вы не можете голосовать в опросах
Вы не можете прикреплять файлы к сообщениям
Вы можете скачивать файлы