Loading...
Error

/ The Big Bang Theory ( 7) ( , , ) [2013, , WEB-DL 720p] [VO (- Paramount Comedy) + Original + Rus Subs (N-Team) + Eng Subs ]

 
16,64 GB   |    :  20
1  [  0 KB/s  ]   1  [  2 MB/s  ]  
 

Shara

[] 

/ The Big Bang Theory
: 2013
:
:
: ~00:20:00
: ( ) - Paramount Comedy
: , ,
: , , , , , , , , ,
:
, , , , . , . , .
, . , , , .
: , , , , .
|
: WEB-DL 720p
: MKV
: 1280x720 at 23.976 fps, MPEG-4 AVC, ~4000 kbps avg, 0.18 bit/pixel
1: Russian: 48 kHz, AC3, 3/2 (L,C,R,l,r) + LFE ch, ~384.00 kbps avg | , - Paramount Comedy|
2: English: 48 kHz, AC3, 3/2 (L,C,R,l,r) + LFE ch, ~384.00 kbps avg
: Russian (N-Team), English
01: The Hofstadter Insufficiency /
02: The Deception Verification /
03: The Scavenger Vortex /
04: The Raiders Minimization /
05: The Workplace Proximity /
06: The Romance Resonance /
07: The Proton Displacement /
08: The Itchy Brain Simulation /
09: The Thanksgiving Decoupling /
10: The Discovery Dissipation /
11: The Cooper Extraction /
12: The Hesitation Ramification /
13: The Occupation Recalibration /
14: The Convention Conundrum / -
15: The Locomotive Manipulation /
16: The Table Polarization /
17: The Friendship Turbulence /
18: The Mommy Observation /
19: The Indecision Amalgamation /
20: The Relationship Diremption /
21: The Anything Can Happen Recurrence /
22: The Proton Transmogrification
23: The Gorilla Dissolution
24: The Status Quo Combustion
:"]

:

General
Complete name : The.Big.Bang.Theory.S07E20.720p.WEB-DL.Rus.Eng.HDCLUB.mkv
Format : Matroska
Format version : Version 4 / Version 2
File size : 718 MiB
Duration : 20mn 51s
Overall bit rate : 4 815 Kbps
Movie name : The Big Bang Theory 7x20 (2013) - Release for HDCLUB
Encoded date : UTC 2014-05-06 19:50:09
Writing application : mkvmerge v6.9.1 ('Blue Panther') 64bit built on Apr 18 2014 18:23:38
Writing library : libebml v1.3.0 + libmatroska v1.4.1
Video
ID : 1
Format : AVC
Format/Info : Advanced Video Codec
Format profile : High@L3.1
Format settings, CABAC : No
Format settings, ReFrames : 2 frames
Codec ID : V_MPEG4/ISO/AVC
Duration : 20mn 51s
Bit rate : 3 951 Kbps
Width : 1 280 pixels
Height : 718 pixels
Display aspect ratio : 16:9
Frame rate mode : Constant
Frame rate : 23.976 fps
Color space : YUV
Chroma subsampling : 4:2:0
Bit depth : 8 bits
Scan type : Progressive
Bits/(Pixel*Frame) : 0.179
Stream size : 589 MiB (82%)
Title : The Big Bang Theory 7x20: The Relationship Diremption / - Release for HDCLUB
Language : English
Default : Yes
Forced : No
Color primaries : BT.709
Transfer characteristics : BT.709
Matrix coefficients : BT.709
Audio #1
ID : 2
Format : AC-3
Format/Info : Audio Coding 3
Mode extension : CM (complete main)
Format settings, Endianness : Big
Codec ID : A_AC3
Duration : 20mn 51s
Bit rate mode : Constant
Bit rate : 384 Kbps
Channel(s) : 6 channels
Channel positions : Front: L C R, Side: L R, LFE
Sampling rate : 48.0 KHz
Bit depth : 16 bits
Compression mode : Lossy
Stream size : 57.3 MiB (8%)
Language : Russian
Default : Yes
Forced : No
Audio #2
ID : 3
Format : AC-3
Format/Info : Audio Coding 3
Mode extension : CM (complete main)
Format settings, Endianness : Big
Codec ID : A_AC3
Duration : 20mn 51s
Bit rate mode : Constant
Bit rate : 384 Kbps
Channel(s) : 6 channels
Channel positions : Front: L C R, Side: L R, LFE
Sampling rate : 48.0 KHz
Bit depth : 16 bits
Compression mode : Lossy
Stream size : 57.3 MiB (8%)
Language : English
Default : No
Forced : No
Text #1
ID : 4
Format : UTF-8
Codec ID : S_TEXT/UTF8
Codec ID/Info : UTF-8 Plain Text
Language : Russian
Default : No
Forced : No
Text #2
ID : 5
Format : UTF-8
Codec ID : S_TEXT/UTF8
Codec ID/Info : UTF-8 Plain Text
Language : English
Default : No
Forced : No
[/spoiler]



...The.Big.Bang.Theory.(.7).(......).[2013..WEB-DL.720p].[VO.(-...Paramount.Comedy).+.Original.+.Rus.Subs.(N-Team).+.Eng.Subs.].torrent
  ! ! 
:   [ : ] c?
MAGNET
MAGNET


.torrent

86 KB

: DHT
: - 20 , - 14
: 16,64 GB
- (: 0)
: 0
:
 FacebookTwitterLivejournal Liveinternet
 

 
: