Loading...
Error

Скачать Наследство / The Heirloom (Лест Чен / Leste Chen) [2005, Тайвань, драма, ужасы, DVDRip] [VO] торрент без регистрации

 
Статистика раздачи
Размер:  1,46 GB   |    Скачан:  108 раз
Сидов:  1  [  0 KB/s  ]  
 
Автор Сообщение

leon030982

[] 

Наследство / The Heirloom
Страна: Тайвань
Жанр: драма, ужасы
Год выпуска: 2005
Продолжительность: 01:36:46
Перевод: одноголосый закадровый den904
Перевод на русский: DeadSno
Cубтитры: нет
Режиссер: Лест Чен / Leste Chen
В ролях: Терри Кван
Джейсон Чанг
Ю Ченг Чанг
Tender Хуанг
Лу Ицзин

Описание: Двадцать лет назад в особняке миллионера Янга, произошло массовое самоубийство. Все члены клана были найдены повешенными. Только один из них выжил. Дело так и осталось нераскрытым.
Двадцать лет спустя дальний родственник Джеймс унаследовал дом Янга, переехав в него вместе с подружкой. Чтобы отпраздновать новоселье, они приглашают в новый дом своих друзей. Так как праздник затягивается, друзья решают переночевать.
Поскольку в доме начинают происходить необъяснимые вещи, новоселы начинают детально изучать дом. Копаясь глубоко в истории, они узнают, что благосостояние Янга было нажито при покровительстве призраков детей, питающихся кровью, которые обитают на мистическом четвертом этаже здани


Сэмпл: http://multi-up.com/709296
Качество видео: DVDRip
Формат видео: AVI
Видео: XviD, 720x400 (1.80:1), 29.970 fps, 1700 kbps avg, 0.20 bit/pixel
Аудио: Руссий, 48 KHz, Dolby Digital, 6 ch, 448 kbps
Format : AVI
Format/Info : Audio Video Interleave
File size : 1.46 GiB
Duration : 1h 36mn
Overall bit rate : 2 156 Kbps
Writing application : VirtualDubMod 1.5.4.1 (build 2178/release)
Writing library : VirtualDubMod build 2178/release
Video
ID : 0
Format : MPEG-4 Visual
Format profile : Advanced Simple@L5
Format settings, BVOP : No
Format settings, QPel : No
Format settings, GMC : No warppoints
Format settings, Matrix : Custom
Codec ID : XVID
Codec ID/Hint : XviD
Duration : 1h 36mn
Bit rate : 1 700 Kbps
Width : 720 pixels
Height : 400 pixels
Display aspect ratio : 16:9
Frame rate : 29.970 fps
Color space : YUV
Chroma subsampling : 4:2:0
Bit depth : 8 bits
Scan type : Progressive
Compression mode : Lossy
Bits/(Pixel*Frame) : 0.197
Stream size : 1.15 GiB (79%)
Writing library : XviD 1.0.2 (UTC 2004-08-29)
Audio
ID : 1
Format : AC-3
Format/Info : Audio Coding 3
Mode extension : CM (complete main)
Format settings, Endianness : Big
Codec ID : 2000
Duration : 1h 36mn
Bit rate mode : Constant
Bit rate : 448 Kbps
Channel(s) : 6 channels
Channel positions : Front: L C R, Side: L R, LFE
Sampling rate : 48.0 KHz
Bit depth : 16 bits
Compression mode : Lossy
Stream size : 310 MiB (21%)
Alignment : Split accross interleaves
Interleave, duration : 96 ms (2.88 video frames)
Interleave, preload duration : 96 ms
Релиз группы:



Скачать Наследство.The.Heirloom.(Лест.Чен.Leste.Chen).[2005.Тайвань.драма.ужасы.DVDRip].[VO].torrent без регистрации
Золото ЗОЛОТАЯ РАЗДАЧА! СКАЧАННОЕ НЕ ЗАСЧИТЫВАЕТСЯ! Золото
Дата: Зарегистрирован   [ Тип: внутренний ] Как тут cкачать?
MAGNET ссылка
MAGNET ссылка


Скачать .torrent

15 KB

Статус: проверено DHT
Скачан: торрент - 108 раз, раздача полностью - 8 раз
Размер: 1,46 GB
Оценка:  - (Голосов: 0)
Поблагодарили: 0
Поделиться ссылкой на эту раздачу с друзьями:
В контактеFacebookОдноклассникиTwitterLivejournalМой МирLiveinternet
 

 
Показать сообщения:    


Вы не можете начинать темы
Вы не можете отвечать на сообщения
Вы не можете редактировать свои сообщения
Вы не можете удалять свои сообщения
Вы не можете голосовать в опросах
Вы не можете прикреплять файлы к сообщениям
Вы можете скачивать файлы