Loading...
Error

Скачать Диллинджер и Капоне / Dillinger and Capone (Джон Парди) [1995, боевик, драма, криминал, ..., DVDRip-AVC] [AVO] торрент без регистрации

 
Статистика раздачи
Размер:  2,46 GB   |    Скачан:  15 раз
Сидов:  1  [  0 KB/s  ]  
 
Автор Сообщение

Marsianka

[] 

Название: Диллинджер и Капоне
Оригинальное название: Dillinger and Capone
Год выхода: 1995

Страна: США
Студия: Concorde-New Horizons, Hillwood Entertainment Film Group Inc.
Продолжительность: 01:30:39
Жанр: боевик, драма, криминал, ...

Режиссер: Джон Парди
В ролях: Мартин Шин, Ф. Мюррэй Абрахам, Стивен Дэвис, Кэтрин Хикс, Дон Страуд, Саша Дженсон, Майкл Оливер, Джеффри Комбс, Майкл С. Гвин, Энтони Кривелло, ...

Перевод: Авторский (одноголосый, закадровый) Сербин Юрий Владимирович

О фильме: По официальной версии, Джон Диллинджер был убит агентами ФБР при выходе из кинотеатра после того, как о его местонахождении сообщила его тогдашняя подруга. В соответствии же с сюжетом фильма Диллинджер остался в живых, поскольку был убит другой, похожий на него человек. Услуги Диллинджера потребовались Аль Капоне после выхода последнего из тюрьмы. Капоне потерял влияние и ему срочно необходимо достать крупную сумму денег, спрятанную в недоступном теперь ему помещении. Он берёт в заложники семью Диллинджера, заставляя того выполнить эту работу…



Кодек: x264
Качество: DVDRip-AVC
Видео: 748x572, 3500 kbps, 25 fps
Аудио #1: AC-3, 2 ch, 192 kbps (Rus) - AVO Сербин Юрий Владимирович
Аудио #2: AC-3, 2 ch, 192 kbps (Eng)
Субтитры: нет
За исходник спасибо - Нордер

x264 [info]: frame I:893 Avg QP:14.75 size: 67473
x264 [info]: frame P:28040 Avg QP:17.20 size: 32478
x264 [info]: frame B:107054 Avg QP:19.78 size: 13162
x264 [info]: consecutive B-frames: 1.2% 1.5% 6.7% 20.4% 19.9% 38.2% 8.8% 1.5% 0.8% 0.6% 0.2% 0.1% 0.1%

Общее
Уникальный идентификатор : 232987552871039718970186602048775138378 (0xAF47C53DCF298E73A8B945D6A4422C4A)
Полное имя : Диллинджер и Капоне (Dillinger and Capone) 1995 DVDRip.mkv
Формат : Matroska
Версия формата : Version 2
Размер файла : 2,46 Гбайт
Продолжительность : 1 ч. 30 м.
Общий поток : 3886 Кбит/сек
Дата кодирования : UTC 2016-07-31 12:30:27
Программа кодирования : mkvmerge v4.0.0 ('The Stars were mine') сборка от Jun 6 2010 16:18:42
Библиотека кодирования : libebml v1.0.0 + libmatroska v1.0.0

Видео
Идентификатор : 1
Формат : AVC
Формат/Информация : Advanced Video Codec
Профиль формата : High@L4.1
Параметр CABAC формата : Да
Параметр ReFrames формата : 12 кадров
Идентификатор кодека : V_MPEG4/ISO/AVC
Продолжительность : 1 ч. 30 м.
Битрейт : 3500 Кбит/сек
Ширина : 748 пикселей
Высота : 572 пикселя
Соотношение сторон : 4:3
Режим частоты кадров : Постоянный
Частота кадров : 25,000 кадров/сек
Цветовое пространство : YUV
Субдискретизация насыщенности : 4:2:0
Битовая глубина : 8 бит
Тип развёртки : Прогрессивная
Бит/(Пиксели*Кадры) : 0.327
Размер потока : 2,17 Гбайт (88%)
Библиотека кодирования : x264 core 146 r2538 121396c
Настройки программы : cabac=1 / ref=12 / deblock=1:-3:-3 / analyse=0x3:0x133 / me=umh / subme=11 / psy=1 / psy_rd=1.00:0.00 / mixed_ref=1 / me_range=32 / chroma_me=1 / trellis=2 / 8x8dct=1 / cqm=0 / deadzone=21,11 / fast_pskip=0 / chroma_qp_offset=-2 / threads=12 / lookahead_threads=2 / sliced_threads=0 / nr=0 / decimate=0 / interlaced=0 / bluray_compat=0 / constrained_intra=0 / bframes=12 / b_pyramid=2 / b_adapt=2 / b_bias=0 / direct=3 / weightb=1 / open_gop=0 / weightp=2 / keyint=250 / keyint_min=25 / scenecut=40 / intra_refresh=0 / rc=2pass / mbtree=0 / bitrate=3500 / ratetol=1.0 / qcomp=0.60 / qpmin=0 / qpmax=69 / qpstep=4 / cplxblur=20.0 / qblur=0.5 / ip_ratio=1.40 / pb_ratio=1.30 / aq=1:0.80
Язык : English
Default : Нет
Forced : Нет

Аудио #1
Идентификатор : 2
Формат : AC-3
Формат/Информация : Audio Coding 3
Расширение режима : CM (complete main)
Параметр Endianness формата : Big
Идентификатор кодека : A_AC3
Продолжительность : 1 ч. 30 м.
Вид битрейта : Постоянный
Битрейт : 192 Кбит/сек
Каналы : 2 канала
Расположение каналов : Front: L R
Частота : 48,0 КГц
Частота кадров : 31,250 кадров/сек (1536 spf)
Метод сжатия : С потерями
Размер потока : 124 Мбайт (5%)
Заголовок : AVO Сербин Юрий Владимирович
Язык : Russian
Default : Нет
Forced : Нет

Аудио #2
Идентификатор : 3
Формат : AC-3
Формат/Информация : Audio Coding 3
Расширение режима : CM (complete main)
Параметр Endianness формата : Big
Идентификатор кодека : A_AC3
Продолжительность : 1 ч. 30 м.
Вид битрейта : Постоянный
Битрейт : 192 Кбит/сек
Каналы : 2 канала
Расположение каналов : Front: L R
Частота : 48,0 КГц
Частота кадров : 31,250 кадров/сек (1536 spf)
Метод сжатия : С потерями
Размер потока : 124 Мбайт (5%)
Язык : English
Default : Нет
Forced : Нет



Скачать Диллинджер.и.Капоне.Dillinger.and.Capone.(Джон.Парди).[1995.боевик.драма.криминал.DVDRip-AVC].[AVO].torrent без регистрации
Золото ЗОЛОТАЯ РАЗДАЧА! СКАЧАННОЕ НЕ ЗАСЧИТЫВАЕТСЯ! Золото
Дата: Зарегистрирован   [ Тип: внутренний ] Как тут cкачать?
MAGNET ссылка
MAGNET ссылка


Скачать .torrent

13 KB

Статус: проверено DHT
Скачан: торрент - 15 раз, раздача полностью - 6 раз
Размер: 2,46 GB
Оценка:  4 (Голосов: 1)
Поблагодарили: 1
Поделиться ссылкой на эту раздачу с друзьями:
В контактеFacebookОдноклассникиTwitterLivejournalМой МирLiveinternet
 

 
Показать сообщения:    


Вы не можете начинать темы
Вы не можете отвечать на сообщения
Вы не можете редактировать свои сообщения
Вы не можете удалять свои сообщения
Вы не можете голосовать в опросах
Вы не можете прикреплять файлы к сообщениям
Вы можете скачивать файлы