Loading...
Error

Скачать Братья по крови / Blutsbruder (Вернер В. Валльрот) [1975, драма, вестерн, BDRip] [Dub (Советский дубляж)] торрент без регистрации

 
Статистика раздачи
Размер:  1,4 GB   |    Скачан:  9 раз
Сидов:  1  [  0 KB/s  ]  
 
Автор Сообщение

Marsianka

[] 

Информация о фильме
Название: Братья по крови
Оригинальное название: Blutsbruder
Год выхода: 1975
Жанр: драма, вестерн
Режиссер: Вернер В. Валльрот
В ролях: Гойко Митич, Дин Рид, Гизела Фройденберг, Йорг Панкнин, Корнел Испас, Сина Фидлер, Евгения Босэнчяну, Маня Александру, Тома Димитриу

О фильме:
Американский солдат, осуждающий истребление индейцев, оставляет армию и переходит на их сторону. Он становится мужем прекрасной индианки, скрепляет кровью свою дружбу с вождем племени и вместе с ним возглавляет восстание против американцев.



Страна: Германия (ГДР)
Студия: Киностудия Дефа
Продолжительность: 01:35:34
Перевод: Полное дублирование [Советский дубляж + вставки Ю.Сербина]

Файл
Качество: BDRip (исх. Blutsbrüder (1975) Blu-ray [Custom] 1080i AVC DD2.0)
Кодек: XviD
Видео: 704x384 (1,85:1), 25 fps, XviD ~1894 kbps avg, 0.280 bit/pixel
Звук: 48 kHz, AC3, 2 ch, ~192.00 kbps avg | русский | Профессиональный (полное дублирование)[Советский дубляж + вставки Ю.Сербина]
Субтитры: Отсутствуют
Семпл
Общее
Полное имя : D:Bratya.Po.Krovi.1975.XviD.BDRip.avi
Формат : AVI
Формат/Информация : Audio Video Interleave
Размер файла : 1,40 Гбайт
Продолжительность : 1 ч. 35 м.
Общий поток : 2096 Кбит/сек
Библиотека кодирования : VirtualDub build 35491/release

Видео
Идентификатор : 0
Формат : MPEG-4 Visual
Профиль формата : Advanced Simple@L5
Параметр BVOP формата : 2
Параметр QPel формата : Нет
Параметр GMC формата : Без точки перехода
Параметр матрицы формата : Default (MPEG)
Идентификатор кодека : XVID
Идентификатор кодека/Подсказка : XviD
Продолжительность : 1 ч. 35 м.
Битрейт : 1894 Кбит/сек
Ширина : 704 пикселя
Высота : 384 пикселя
Соотношение сторон : 1,85:1
Частота кадров : 25,000 кадров/сек
Цветовое пространство : YUV
Субдискретизация насыщенности : 4:2:0
Битовая глубина : 8 бит
Тип развёртки : Прогрессивная
Метод сжатия : С потерями
Бит/(Пиксели*Кадры) : 0.280
Размер потока : 1,26 Гбайт (90%)
Библиотека кодирования : XviD 73

Аудио
Идентификатор : 1
Формат : AC-3
Формат/Информация : Audio Coding 3
Расширение режима : CM (complete main)
Параметр Endianness формата : Big
Идентификатор кодека : 2000
Продолжительность : 1 ч. 35 м.
Вид битрейта : Постоянный
Битрейт : 192 Кбит/сек
Каналы : 2 канала
Расположение каналов : Front: L R
Частота : 48,0 КГц
Метод сжатия : С потерями
Размер потока : 131 Мбайт (9%)
Выравнивание : Соединение по промежуткам
Продолжительность промежутка : 40 мс. (1,00 видеокадр)
Время предзагрузки промежутка : 512 мс.



Скачать Братья.по.крови.Blutsbruder.(Вернер.В.Валльрот).[1975.драма.вестерн.BDRip].[Dub.(Советский.дубляж)].torrent без регистрации
Золото ЗОЛОТАЯ РАЗДАЧА! СКАЧАННОЕ НЕ ЗАСЧИТЫВАЕТСЯ! Золото
Дата: Зарегистрирован   [ Тип: внутренний ] Как тут cкачать?
MAGNET ссылка
MAGNET ссылка


Скачать .torrent

15 KB

Статус: проверено DHT
Скачан: торрент - 9 раз, раздача полностью - 3 раз
Размер: 1,4 GB
Оценка:  - (Голосов: 0)
Поблагодарили: 1
Поделиться ссылкой на эту раздачу с друзьями:
В контактеFacebookОдноклассникиTwitterLivejournalМой МирLiveinternet
 

 
Показать сообщения:    


Вы не можете начинать темы
Вы не можете отвечать на сообщения
Вы не можете редактировать свои сообщения
Вы не можете удалять свои сообщения
Вы не можете голосовать в опросах
Вы не можете прикреплять файлы к сообщениям
Вы можете скачивать файлы