Loading...
Error

Скачать Рэй Донован / Ray Donovan (Аллен Коултер) (Сезон 4, Серии 1-12 из 12) [2016, Криминальная драма, ]WEB-DL 1080p] [DD5.1] [MVO] [NewStudio, Kubik V Kube, English + Subs Rus,ENG] торрент без регистрации

 
Статистика раздачи
Размер:  33,17 GB   |    Скачан:  475 раз
Сидов:  1  [  0 KB/s  ]  
 
Автор Сообщение

Nikolai.Baranov

[] 





Рэй Донован / Ray Donovan Сезон 4, Серии 1-12 из 12




Год выпуска: 2016
Выпущено: США, The Mark Gordon Company
Жанр: Криминальная драма
Продолжительность: 00:50:00
Сезон: 4
Серия: 1-12
Количество серий в сезоне: 12
Перевод: Weirdie

Озвучка 1: Профессиональный многоголосый - NewStudiо-Русский

Озвучка 2: Профессиональный двухголосый -Kubik V Kube:(Эпизоды 01-08)-Русский

Озвучка 3: Профессиональный многоголосый -Английский -Оригинал

Субтитры: :Русские, Английские



Режиссер: Аллен Коултер

В ролях: Лив Шрайбер, Паула Малкомсон, Кэтрин Монниг, Пуч Холл, Кэррис Дорси, Девон Бэгби, Джон Войт, Стивен Бауэр, Уильям Стэнфорд Дэвис, Майкл МакГрэйди, Фрэнк Уэйли, Эллиотт Гулд, Октавиус Дж. Джонсон, Эмбир Чилдерс


Сильный молчаливый тип.

Рэй Донован решает вопросы богатых и знаменитых. В своей нише он практически незаменим, ибо наделен четким систематизированным мышлением, стальной волей, криминальным интеллектом, отсутствием рамок и границ для достижения целей и хмурым выражением лица, которое символизирует его строгий серьезный подход к делу. Человек он грубый, немногословный, и вообще относится к тому типу людей, с которыми проблем лучше не иметь, а уж тем более не оказываться с Рэем в одном помещении в одно и то же время, если у тебя все-таки есть с ним проблемы. Управы на Рэя нет ни у кого, он что-то вроде волка-одиночки, знающего свое дело, кроме которого его особо ничто и никто не колышет. А если что-то все-таки и расстраивает его чувства — справляется он с этим в полном одиночестве в компании бутылки виски.

Команда Донована представляет собой что-то вроде организованной преступной группы с навыками спецслужб и, естественно, легальным прикрытием. Подставить и отправить на зону? Обставить хату жучками и скрытыми камерами? Шантажировать компроматом? Избить до полусмерти? Вообще убить? Нет проблем, перечисленные инструменты воздействия являются стандартными методами для решения проблем безответственных, легкомысленных голливудских знаменитостей, которые как магнитом притягивают к себе неприятности и наживают себе врагов. Они готовы платить любые деньги, чтобы избавиться от своих проблем любыми способами, являя собой нехилую кормушку для таких людей, как Рэй.

Однако работа Донована не в сериале важную роль и показывается в виде ежедневной рутины. Приоритетная же сюжетная линия заключается во взаимоотношениях Рэя с отцом, который по УДО откинулся с зоны. С каждой серией зритель узнает все больше о Микки Доноване, и почему Рэй хочет чтобы тот не только держался подальше от его семьи и партнеров по бизнесу, а снова отправился топтать квадрат. Кроме того, сериал интригует энным количеством загадок, скелетов в полумраке шкафа и недомолвок, которые в неспешной манере объясняются по мере развития сюжета.

Подведем итоги. Лично я считаю, что Лив Шрайбер, Рэя, отлично справился со своей задачей. Суровый молчаливый тип, которого невозможно выбить из колеи, напоминает ледокол, медленно но верно крошащий препятствия, которым не повезло оказаться на его пути. Человек дела, а остальное все побоку. Кроме того, по его покерфейсу никогда не поймешь, что он задумал, и это придает его образу опасную непредсказуемость. Порадовал и Джон Войт в роли Микки — сиделый вор, изображающий из себя безобидного задорного старикана, со всеми на одной волне, вечно отпускающий пошлые шуточки, но по сути человек достаточно хитрый и коварный, кроме того способный не моргнув глазом убить человека, в общем персонаж непростой и притягивающий к себе немало зрительского внимания. Сериал на мой взгляд достаточно интересен, как многослойным сюжетом, постепенно и неторопливо раскрывающимся, так и главным героем. Отличная драма, изобилующая проблемами и конфликтными ситуациями, вьющимися вокруг Рэя Донована и не дающими ему соскучиться. Стильная постановка, отличная игра актеров.





[Качество :WEB-DL 1080p
Формат: MKV
Видео кодек: H264
Видео: 5051Кбит/сек,1920х1080(16.9),в 23.976кадр/сек,AVC(High@L4.1)(CABAC/4 Ref Frames)
Аудио Кодек:AC3

Аудио #1:AC3 , 384 Kbps, 48.0 KHz, 6 ch- -NewStudiо-Русский

Аудио #2: AC3, 384 Kbps, 48.0 KHz, 6 ch - Kubik V Kube-Русский

Аудио #3: AC3, 640 Kbps, 48.0 KHz,6 ch - - English-Английский -Оригинал


Звуковая дорожка сделана путем наложения чистого голоса озвучивателей на центральный канал оригинальной дорожки. Качество идентично звуковой дорожке.




01.Девушка с гитарой / Girl with Guitar
02.Марисоль / Marisol
03. Большая зелёная подкова Малыша Билла Примма / Little Bill Primm's Big Green Horseshoe
04. Федеральный инспектор по сиськам / Federal Boobie Inspector
05. Рассчитаться перед уходом / Get Even Before Leavin
06. Рыбки и птички / Fish and Bird
07. Норман спасает мир / Norman Saves the World
08. Техасец / Texan
09. Прощай, Красотка / Goodbye, Beautiful
10. Озеро Голливуд / Lake Hollywood
11. Китайская Алгебра / Chinese Algebra
12. Чёрная крыса / Rattus Rattus



Общее
Уникальный идентификатор : 210702154504998040424111920662863085072 (0x9E83C2455B76F56F8885FD78E59AFE10)
Полное имя : E:\РЭЙ ДОНОВАН\RAY_DONOVAN_2016_S04_RUS[NewStudiо_Kubik V Kube]_DD5.1_N.B_WEB-DL_1080_Rus_Eng\RAY_DONOVAN_2016_S04E01_DD5.1_N.B_WEB-DL_1080_2хRus_Eng.mkv
Формат : Matroska
Версия формата : Version 4 / Version 2
Размер файла : 2,65 Гбайт
Продолжительность : 58 м. 42 с.
Общий поток : 6457 Кбит/сек
Название фильма : RAY_DONOVAN_2016_S04E01_DD5.1_N.B_WEB-DL_1080_2хRus_Eng
Дата кодирования : UTC 2016-10-04 05:07:01
Программа кодирования : mkvmerge v9.4.2 ('So High') 64bit
Библиотека кодирования : libebml v1.3.4 + libmatroska v1.4.5

Видео
Идентификатор : 1
Формат : AVC
Формат/Информация : Advanced Video Codec
Профиль формата : High@L4.1
Параметр CABAC формата : Да
Параметр ReFrames формата : 4 кадра
Идентификатор кодека : V_MPEG4/ISO/AVC
Продолжительность : 58 м. 42 с.
Битрейт : 5051 Кбит/сек
Ширина : 1920 пикселей
Высота : 1080 пикселей
Соотношение сторон : 16:9
Режим частоты кадров : Постоянный
Частота кадров : 23,976 (24000/1001) кадра/сек
Цветовое пространство : YUV
Субдискретизация насыщенности : 4:2:0
Битовая глубина : 8 бит
Тип развёртки : Прогрессивная
Бит/(Пиксели*Кадры) : 0.102
Размер потока : 2,07 Гбайт (78%)
Заголовок : RAY_DONOVAN_2016_S04E01_DD5.1_N.B_WEB-DL_1080_2хRus_Eng
Библиотека кодирования : x264 core 144 r2525 40bb568
Настройки программы : cabac=1 / ref=4 / deblock=1:-3:-3 / analyse=0x3:0x133 / me=umh / subme=10 / psy=1 / psy_rd=1.00:0.00 / mixed_ref=1 / me_range=48 / chroma_me=1 / trellis=2 / 8x8dct=1 / cqm=0 / deadzone=21,11 / fast_pskip=1 / chroma_qp_offset=-2 / threads=12 / lookahead_threads=2 / sliced_threads=0 / nr=0 / decimate=1 / interlaced=0 / bluray_compat=0 / constrained_intra=0 / bframes=8 / b_pyramid=2 / b_adapt=2 / b_bias=0 / direct=3 / weightb=1 / open_gop=0 / weightp=2 / keyint=250 / keyint_min=23 / scenecut=40 / intra_refresh=0 / rc=crf / mbtree=0 / crf=18.5 / qcomp=0.60 / qpmin=0 / qpmax=69 / qpstep=4 / ip_ratio=1.30 / pb_ratio=1.20 / aq=3:0.80
Язык : English
Default : Да
Forced : Нет

Аудио #1
Идентификатор : 4
Формат : AC-3
Формат/Информация : Audio Coding 3
Расширение режима : CM (complete main)
Параметр Endianness формата : Big
Идентификатор кодека : A_AC3
Продолжительность : 58 м. 6 с.
Вид битрейта : Постоянный
Битрейт : 384 Кбит/сек
Каналы : 6 каналов
Расположение каналов : Front: L C R, Side: L R, LFE
Частота : 48,0 КГц
Частота кадров : 31,250 кадров/сек (1536 spf)
Метод сжатия : С потерями
Задержка видео : 16 мс.
Размер потока : 160 Мбайт (6%)
Заголовок : MVO NewStudiо @DD5.1 AC3, 384 Kbps, 48.0 KHz, 6 ch
Язык : Russian
Default : Да
Forced : Нет

Аудио #2
Идентификатор : 5
Формат : AC-3
Формат/Информация : Audio Coding 3
Расширение режима : CM (complete main)
Параметр Endianness формата : Big
Идентификатор кодека : A_AC3
Продолжительность : 58 м. 42 с.
Вид битрейта : Постоянный
Битрейт : 640 Кбит/сек
Каналы : 6 каналов
Расположение каналов : Front: L C R, Side: L R, LFE
Частота : 48,0 КГц
Частота кадров : 31,250 кадров/сек (1536 spf)
Метод сжатия : С потерями
Размер потока : 269 Мбайт (10%)
Заголовок : Original @DD5.1 AC3, 640 Kbps, 48.0 KHz, 6 ch
Язык : English
Default : Нет
Forced : Нет

Аудио #3
Идентификатор : 6
Формат : AC-3
Формат/Информация : Audio Coding 3
Расширение режима : CM (complete main)
Параметр Endianness формата : Big
Идентификатор кодека : A_AC3
Продолжительность : 58 м. 42 с.
Вид битрейта : Постоянный
Битрейт : 384 Кбит/сек
Каналы : 6 каналов
Расположение каналов : Front: L C R, Side: L R, LFE
Частота : 48,0 КГц
Частота кадров : 31,250 кадров/сек (1536 spf)
Метод сжатия : С потерями
Размер потока : 161 Мбайт (6%)
Заголовок : MVO Kubik V Kube @DD5.1 AC3, 384 Kbps, 48.0 KHz, 6 ch
Язык : Russian
Default : Нет
Forced : Нет

Текст #1
Идентификатор : 2
Формат : UTF-8
Идентификатор кодека : S_TEXT/UTF8
Идентификатор кодека/Информация : UTF-8 Plain Text
Продолжительность : 56 м. 24 с.
Битрейт : 71 бит/сек
Count of elements : 672
Размер потока : 29,5 Кбайт (0%)
Заголовок : Rus
Язык : Russian
Default : Да
Forced : Нет

Текст #2
Идентификатор : 3
Формат : UTF-8
Идентификатор кодека : S_TEXT/UTF8
Идентификатор кодека/Информация : UTF-8 Plain Text
Продолжительность : 58 м. 5 с.
Битрейт : 56 бит/сек
Count of elements : 909
Размер потока : 24,0 Кбайт (0%)
Заголовок : Original
Язык : English
Default : Нет
Forced : Нет









1. Открыть торрент
2. Снять галки с тех файлов торрента, которые мы не хотим закачивать. Оставляем только на нужных нам файлах (файле).
3. Нажать О.К.

В клиенте utorrent

Инструкция

1) Открыть торрент


2) Снять галки с тех файлов торрента, которые мы не хотим закачивать:

* либо вручную, снимая с каждого файла галку( скрин №1)
* либо, нажав кнопку "Снять метки (Select None)", сняв сразу со всех файлов(скрин №2)
№1

№2

Оставляем только на нужных нам файлах (файле).

3)Нажать О.К






Внимание!!! 04.10. 2016. РАЗДАЧА ОБНОВЛЕНА. ФИНАЛ СЕЗОНА. ОБНОВИТЕ ТОРЕНТ ФАЙЛ.ПРИЯТНОГО ПРОСМОТРА .

Релиз от: Nikolai.Baranov & PIRATIYA










Скачать Рэй.Донован.Ray.Donovan.(Аллен.Коултер).(Сезон.4.Серии.1-12.из.12).[2016.Криминальная.драма.]WEB-DL.1080p].[DD5.1].[MVO].[NewStudio.Kubik.V.Kube.English.+.Subs.Rus.ENG].torrent без регистрации
Золото ЗОЛОТАЯ РАЗДАЧА! СКАЧАННОЕ НЕ ЗАСЧИТЫВАЕТСЯ! Золото
Дата: Зарегистрирован   [ Тип: внутренний ] Как тут cкачать?
MAGNET ссылка
MAGNET ссылка


Скачать .torrent

89 KB

Статус: проверено DHT
Скачан: торрент - 475 раз, раздача полностью - 2 раз
Размер: 33,17 GB
Оценка:  - (Голосов: 0)
Поблагодарили: 6
Поделиться ссылкой на эту раздачу с друзьями:
В контактеFacebookОдноклассникиTwitterLivejournalМой МирLiveinternet
 

 
Показать сообщения:    


Вы не можете начинать темы
Вы не можете отвечать на сообщения
Вы не можете редактировать свои сообщения
Вы не можете удалять свои сообщения
Вы не можете голосовать в опросах
Вы не можете прикреплять файлы к сообщениям
Вы можете скачивать файлы