Loading...
Error

Скачать Безымянная - одна женщина в Берлине / Anonyma – Eine Frau in Berlin (Макс Фэрбербек) [2008, драма, военный, история, BDRip-AVC] [VO]+[Sub]x2 торрент без регистрации

 
Статистика раздачи
Размер:  2,18 GB   |    Скачан:  12 раз

Полного источника не было: 25 минут

 
Автор Сообщение

Marsianka

[] 

Информация о фильме
Название: Безымянная - одна женщина в Берлине
Оригинальное название: Anonyma – Eine Frau in Berlin
Год выхода: 2008
Жанр: драма, военный, история
Режиссер: Макс Фэрбербек
В ролях: Нина Хосс, Евгений Сидихин, Ирм Херманн, Рюдигер Фоглер, Ульрике Крумбигель, Рольф Канис, Йордис Трибель, Роман Грибков, Юлиане Кёлер, Виктор Жалсанов, Александра Куликова, Олег Чернов, Александр Самойленко, Максим Коновалов, Игорь Яцко, Константин Воробьёв

О фильме:
Фильм основан на анонимных дневниках немецкой женщины, которая вместе с другими скрывалась в полуразрушенном доме, когда Красная Армия вошла в Берлин. Чтобы избежать надругательств солдат Красной Армии, она ищет солдата, который мог бы её защитить. Однако ситуация осложняется, когда между ними вспыхивает чувство, очень похожее на любовь... Это - большое кино. Кино, которое требует от зрителя восприятия не только головой, но и сердцем. Всё, что является свидетельством человеческого духа, не имеет границ и национальности...


Страна: Германия, Польша
Студия: Constantin Film, ZDF, Tempus
Продолжительность: 02:11:22

Файл
Кодек: x264
Качество: BDRip-AVC (Bezymjannaja.odna.zhenwina.v.Berline.2008.x264.Blu-Ray.Remux(1080p))
Видео: MPEG-4 AVC, 1923 Kбит/с, 1024x432, 24 кадр/с
AC3, 6 ch, 448 Кбит/с
Язык: Русский

Субтитры: Русские (на немецкую речь), английские
Общее
Уникальный идентификатор : 238859260486047968794806009934983567921 (0xB3B29EC728BC5B94A96653C2EC499A31)
Полное имя : Eine.Frau.in.Berlin.2008.BDRip-AVC.mkv
Формат : Matroska
Версия формата : Version 4 / Version 2
Размер файла : 2,18 Гбайт
Продолжительность : 2 ч. 11 м.
Общий поток : 2373 Кбит/сек
Название фильма : Anonyma – Eine Frau in Berlin
Режиссёр : Max Farberbock
Дата кодирования : UTC 2016-08-29 17:18:25
Программа кодирования : mkvmerge v9.2.0 ('Photograph') 32bit
Библиотека кодирования : libebml v1.3.3 + libmatroska v1.4.4
Обложка : Yes
Attachments : cover.jpg
Release : Koenig

Видео
Идентификатор : 1
Формат : AVC
Формат/Информация : Advanced Video Codec
Профиль формата : High@L4.1
Параметр CABAC формата : Да
Параметр ReFrames формата : 9 кадров
Идентификатор кодека : V_MPEG4/ISO/AVC
Продолжительность : 2 ч. 11 м.
Битрейт : 1923 Кбит/сек
Ширина : 1024 пикселя
Высота : 432 пикселя
Соотношение сторон : 2,40:1
Режим частоты кадров : Постоянный
Частота кадров : 24,000 кадра/сек
Цветовое пространство : YUV
Субдискретизация насыщенности : 4:2:0
Битовая глубина : 8 бит
Тип развёртки : Прогрессивная
Бит/(Пиксели*Кадры) : 0.181
Размер потока : 1,76 Гбайт (81%)
Библиотека кодирования : x264 core 148 r2692 64f4e24
Настройки программы : cabac=1 / ref=9 / deblock=1:-3:-3 / analyse=0x3:0x133 / me=umh / subme=10 / psy=1 / psy_rd=1.00:0.00 / mixed_ref=1 / me_range=32 / chroma_me=1 / trellis=2 / 8x8dct=1 / cqm=0 / deadzone=21,11 / fast_pskip=0 / chroma_qp_offset=-2 / threads=3 / lookahead_threads=1 / sliced_threads=0 / nr=0 / decimate=1 / interlaced=0 / bluray_compat=0 / constrained_intra=0 / bframes=10 / b_pyramid=2 / b_adapt=2 / b_bias=0 / direct=3 / weightb=1 / open_gop=0 / weightp=2 / keyint=240 / keyint_min=24 / scenecut=40 / intra_refresh=0 / rc_lookahead=40 / rc=2pass / mbtree=1 / bitrate=1923 / ratetol=1.0 / qcomp=0.60 / qpmin=10 / qpmax=51 / qpstep=4 / cplxblur=20.0 / qblur=0.5 / vbv_maxrate=50000 / vbv_bufsize=62500 / nal_hrd=none / filler=0 / ip_ratio=1.40 / aq=1:1.00
Default : Да
Forced : Нет

Аудио
Идентификатор : 2
Формат : AC-3
Формат/Информация : Audio Coding 3
Расширение режима : CM (complete main)
Параметр Endianness формата : Big
Идентификатор кодека : A_AC3
Продолжительность : 2 ч. 11 м.
Вид битрейта : Постоянный
Битрейт : 448 Кбит/сек
Каналы : 6 каналов
Расположение каналов : Front: L C R, Side: L R, LFE
Частота : 48,0 КГц
Частота кадров : 31,250 кадров/сек (1536 spf)
Метод сжатия : С потерями
Размер потока : 421 Мбайт (19%)
Язык : Russian
Default : Да
Forced : Нет

Текст #1
Идентификатор : 3
Формат : UTF-8
Идентификатор кодека : S_TEXT/UTF8
Идентификатор кодека/Информация : UTF-8 Plain Text
Продолжительность : 2 ч. 5 м.
Битрейт : 33 бит/сек
Count of elements : 599
Размер потока : 30,9 Кбайт (0%)
Язык : Russian
Default : Да
Forced : Нет

Текст #2
Идентификатор : 4
Формат : UTF-8
Идентификатор кодека : S_TEXT/UTF8
Идентификатор кодека/Информация : UTF-8 Plain Text
Продолжительность : 2 ч. 4 м.
Битрейт : 26 бит/сек
Count of elements : 1022
Размер потока : 24,7 Кбайт (0%)
Язык : English
Default : Нет
Forced : Нет



Скачать Безымянная.-.одна.женщина.в.Берлине.Anonyma.–.Eine.Frau.in.Berlin.(Макс.Фэрбербек).[2008.драма.военный.история.BDRip-AVC].[VO]+[Sub]x2.torrent без регистрации
Золото ЗОЛОТАЯ РАЗДАЧА! СКАЧАННОЕ НЕ ЗАСЧИТЫВАЕТСЯ! Золото
Дата: Зарегистрирован   [ Тип: внутренний ] Как тут cкачать?
MAGNET ссылка
MAGNET ссылка


Скачать .torrent

12 KB

Статус: проверено DHT
Скачан: торрент - 12 раз, раздача полностью - 30 раз
Размер: 2,18 GB
Оценка:  - (Голосов: 0)
Поблагодарили: 1
Поделиться ссылкой на эту раздачу с друзьями:
В контактеFacebookОдноклассникиTwitterLivejournalМой МирLiveinternet
 

 
Показать сообщения:    


Вы не можете начинать темы
Вы не можете отвечать на сообщения
Вы не можете редактировать свои сообщения
Вы не можете удалять свои сообщения
Вы не можете голосовать в опросах
Вы не можете прикреплять файлы к сообщениям
Вы можете скачивать файлы