Loading...
Error

Скачать Код / The Code (Сезон 02) (Шон Сит) [2016, драма, триллер, криминал, WEB-DLRip] [MVO] (AlexFilm) торрент без регистрации

 
Статистика раздачи
Размер:  3,96 GB   |    Скачан:  34 раза

Полного источника не было: 23 минуты

 
Автор Сообщение

leon030982

[] 


Код / The Code

Год выпуска: 2016
Страна: Австралия
Жанр: драма, триллер, криминал
Продолжительность: ~00:55:00
Озвучание: Профессиональное (многоголосое закадровое) (AlexFilm)

Режиссёр: Шон Сит

В ролях: Дэн Спилман, Эшли Цукерман, Аделе Перович, Люси Лоулесс, Аден Янг, Дэвид Уэнэм, Аарон Педерсен, Адам Гарсия, Челси Престон-Крейфорд, Пол Тассоне, Дэниэл Уилли, Дэвид Робертс, Аарон Л. МакГрат...

Описание: Братьям Неду и Джесси грозит экстрадиция в США, но у австралийского правительства есть предложение, от которого невозможно отказаться.

Релиз:
Перевод: Константин Кривоногов
Монтаж и сведение звука: Михаил Суслов
Роли озвучивали:Таисия Тришина
Екатериана Муравицкая
Михаил Суслов
Сергей Пономарёв
Владимир Курдов
Станислав Черсков
Сэмпл: http://sendfile.su/1262675

Качество: WEB-DLRip
Формат: AVI
Видео: 720x400 (1.80:1), 25 fps, XviD ~1400 kbps avg, 0.193 bit/pixel
Аудио Rus: 48 kHz, MPEG Layer 3, 2 ch, ~128.00 kbps avg
Аудио Eng: 48 kHz, MPEG Layer 3, 2 ch, ~128.00 kbps avg
Субтитры: нет

Добавлена 6-я серия!
Format : AVI
Format/Info : Audio Video Interleave
File size : 680 MiB
Duration : 57 min
Overall bit rate : 1 660 kb/s
Movie name : The Code 2x01 @ AlexFilm
Writing application : VirtualDubMod 1.5.10.2 (build 2540/release)
Writing library : VirtualDubMod build 2540/release
Video
ID : 0
Format : MPEG-4 Visual
Format profile : Advanced Simple@L5
Format settings, BVOP : No
Format settings, QPel : No
Format settings, GMC : No warppoints
Format settings, Matrix : Default (MPEG)
Codec ID : XVID
Codec ID/Hint : XviD
Duration : 57 min
Bit rate : 1 389 kb/s
Width : 720 pixels
Height : 400 pixels
Display aspect ratio : 16:9
Frame rate : 25.000 FPS
Color space : YUV
Chroma subsampling : 4:2:0
Bit depth : 8 bits
Scan type : Progressive
Compression mode : Lossy
Bits/(Pixel*Frame) : 0.193
Stream size : 569 MiB (84%)
Writing library : XviD 73
Audio #1
ID : 1
Format : MPEG Audio
Format version : Version 1
Format profile : Layer 3
Mode : Joint stereo
Mode extension : MS Stereo
Codec ID : 55
Codec ID/Hint : MP3
Duration : 57 min
Bit rate mode : Constant
Bit rate : 128 kb/s
Channel(s) : 2 channels
Sampling rate : 48.0 kHz
Compression mode : Lossy
Stream size : 52.4 MiB (8%)
Alignment : Aligned on interleaves
Interleave, duration : 40 ms (1.00 video frame)
Interleave, preload duratio : 504 ms
Title : Russian (AlexFilm)
Audio #2
ID : 2
Format : MPEG Audio
Format version : Version 1
Format profile : Layer 3
Mode : Joint stereo
Mode extension : MS Stereo
Codec ID : 55
Codec ID/Hint : MP3
Duration : 57 min
Bit rate mode : Constant
Bit rate : 128 kb/s
Channel(s) : 2 channels
Sampling rate : 48.0 kHz
Compression mode : Lossy
Stream size : 52.4 MiB (8%)
Alignment : Aligned on interleaves
Interleave, duration : 40 ms (1.00 video frame)
Interleave, preload duratio : 504 ms
Title : English
Внимание! Раздача ведётся путём добавления новых серий; при каждом добавлении создаётся новый торрент. Чтобы начать докачку новой серии, пользователям необходимо сделать следующее:
(1) остановить скачивание,
(2) удалить старый торрент у себя из клиента (старые серии удалять не надо),
(3) скачать новый торрент и запустить его у себя в клиенте вместо старого, при этом указать клиенту путь в старую папку куда и должно происходить скачивание новых серий.
Ваш клиент при этом должен произвести хеширование (проверку) старой папки (если не производит сам - помогите ему сделать это), и будет докачивать только те серии которых у вас ещё нет. Старые серии при этом не удаляются, а продолжают раздаваться!
Eсли вы уже удалили старые серии, то предотвратить повторную закачку старых серий можно, отжав галочку в соответствующих местах при запуске нового торрента. По возможности, желательно не удалять старые серии как можно дольше чтобы релизёр не столько продолжал раздавать старые серии, а смог сконцентрироваться на новых.





Скачать Код.The.Code.(Сезон.02).(Шон.Сит).[2016.драма.триллер.криминал.WEB-DLRip].[MVO].(AlexFilm).torrent без регистрации
Золото ЗОЛОТАЯ РАЗДАЧА! СКАЧАННОЕ НЕ ЗАСЧИТЫВАЕТСЯ! Золото
Дата: Зарегистрирован   [ Тип: внутренний ] Как тут cкачать?
MAGNET ссылка
MAGNET ссылка


Скачать .torrent

21 KB

Статус: проверено DHT
Скачан: торрент - 34 раз, раздача полностью - 4 раз
Размер: 3,96 GB
Оценка:  5 (Голосов: 1)
Поблагодарили: 4
Поделиться ссылкой на эту раздачу с друзьями:
В контактеFacebookОдноклассникиTwitterLivejournalМой МирLiveinternet
 

 

leon030982

[] 

Цитата:

Добавлена 3-я серия!
 
Показать сообщения:    


Вы не можете начинать темы
Вы не можете отвечать на сообщения
Вы не можете редактировать свои сообщения
Вы не можете удалять свои сообщения
Вы не можете голосовать в опросах
Вы не можете прикреплять файлы к сообщениям
Вы можете скачивать файлы