Loading...
Error

Скачать Последний киногерой / Last Action Hero (Джон МакТирнан) [1993, фэнтези, боевик, комедия, приключения, семейный, HDRip] [MVO] торрент без регистрации

 
Статистика раздачи
Размер:  747 MB   |    Скачан:  8 раз
Сидов:  1  [  0 KB/s  ]  
 
Автор Сообщение

Marsianka

[] 

Информация о фильме
Название: Последний киногерой
Оригинальное название: Last Action Hero
Год выхода: 1993
Жанр: фэнтези, боевик, комедия, приключения, семейный
Режиссер: Джон МакТирнан
В ролях: Арнольд Шварценеггер, Остин О’Брайен, Чарльз Дэнс, Ф. Мюррэй Абрахам, Бриджит Уилсон, Том Нунен, Роберт Проски, Энтони Куинн, Мерседес Руэль, Фрэнк МакРей

О фильме: Юному киноману Дэнни Мэдигану достается волшебный билет, который переносит его на другую сторону экрана. Мальчик оказывается рядом со своим любимым персонажем, знаменитым полицейским Джеком Слэйтером, и становится полноправным участником всех событий напряженного боевика.Впереди напарников ждет самое страшное испытание: Джек и Дэнни попадают в реальный мир, где непобедимый герой теряет свою фантастическую силу, и теперь он может погибнуть, как любой смертный. А для настоящих преступников непревзойденный супермен — всего лишь очередная мишень…



Страна: США
Продолжительность: 02:10:54
Перевод: Профессиональный (многоголосый, закадровый) Blu-ray CEE
Субтитры: Нет

Семпл

Файл
Кодек: XviD
Качество: HDRip
Видео: 656x272 (2.41:1), 23.976 fps, XviD build 73 ~660 kbps avg, 0.15 bit/pixel
Звук: 48 kHz, MPEG Layer 3, 2 ch, ~128.00 kbps avg
General
Complete name : Last.Action.Hero.1993.HDRip.ot.Portablius.avi
Format : AVI
Format/Info : Audio Video Interleave
File size : 747 MiB
Duration : 2h 10mn
Overall bit rate : 798 Kbps
Writing application : VirtualDubMod 1.5.10.3 | www.virtualdub-fr.org || (build 2550/release)
Writing library : VirtualDubMod build 2550/release

Video
ID : 0
Format : MPEG-4 Visual
Format profile : Advanced Simple@L5
Format settings, BVOP : 1
Format settings, QPel : No
Format settings, GMC : No warppoints
Format settings, Matrix : Custom
Codec ID : XVID
Codec ID/Hint : XviD
Duration : 2h 10mn
Bit rate : 661 Kbps
Width : 656 pixels
Height : 272 pixels
Display aspect ratio : 2.40:1
Frame rate : 23.976 fps
Color space : YUV
Chroma subsampling : 4:2:0
Bit depth : 8 bits
Scan type : Progressive
Compression mode : Lossy
Bits/(Pixel*Frame) : 0.154
Stream size : 618 MiB (83%)
Writing library : XviD 73

Audio
ID : 1
Format : MPEG Audio
Format version : Version 1
Format profile : Layer 3
Codec ID : 55
Codec ID/Hint : MP3
Duration : 2h 10mn
Bit rate mode : Constant
Bit rate : 128 Kbps
Channel(s) : 2 channels
Sampling rate : 48.0 KHz
Compression mode : Lossy
Stream size : 120 MiB (16%)
Alignment : Aligned on interleaves
Interleave, duration : 42 ms (1.00 video frame)
Interleave, preload duration : 504 ms
Writing library : LAME3.99r
Encoding settings : -m s -V 4 -q 2 -lowpass 17 -b 128



Скачать Последний.киногерой.Last.Action.Hero.(Джон.МакТирнан).[1993.фэнтези.боевик.комедия.приключения.семейный.HDRip].[MVO].torrent без регистрации
Золото ЗОЛОТАЯ РАЗДАЧА! СКАЧАННОЕ НЕ ЗАСЧИТЫВАЕТСЯ! Золото
Дата: Зарегистрирован   [ Тип: внутренний ] Как тут cкачать?
MAGNET ссылка
MAGNET ссылка


Скачать .torrent

15 KB

Статус: проверено DHT
Скачан: торрент - 8 раз, раздача полностью - 9 раз
Размер: 747 MB
Оценка:  - (Голосов: 0)
Поблагодарили: 1
Поделиться ссылкой на эту раздачу с друзьями:
В контактеFacebookОдноклассникиTwitterLivejournalМой МирLiveinternet
 

 
Показать сообщения:    


Вы не можете начинать темы
Вы не можете отвечать на сообщения
Вы не можете редактировать свои сообщения
Вы не можете удалять свои сообщения
Вы не можете голосовать в опросах
Вы не можете прикреплять файлы к сообщениям
Вы можете скачивать файлы